Присоединяйтесь к нам в Telegram!, здесь всегда актуальный адрес сайта, оперативная поддержка и многое другое!!

>

5.9

iTunes

7.4

iTunes

9.4

1 сезон

1

7.4

2 сезон

7.2

iTunes

7.3

1 сезон

13

6.1

iTunes

8.3

GOG

30

ULTIMATE

pack

9.9

Лицензия

ВАЖНО

ИГРА 18+

pack

7.3

RePack

MK11

7.7

RePack

jed

7.8

RePack

fifa19

8.5

RePack

RDR2

RePack

NEED FOR SPEED™ PAYBACK

5 сезон

9 сезон

Бесстыжие 9 сезон

Все сериалы

все сериалы на PB.wtf

RePack

FAR CRY 5

Anonymous, добрый день, мы катастрофически не успеваем собрать деньги на оплату серверов, помогите нам пожалуйста 5,10,15р., для нас важна любая помощь . В качестве благодарности мы отключим Вам всю рекламу на сайте (укажите свой ник в строку Ваше имя)!

×
  
Magnet ссылка

Страдающий амнезией / Amnesiac (Майкл Полиш) [2015, ужасы, триллер, драма, WEB-DLRip, Любительский (двухголосый) [datynet & Galina Vasyukova] piratbit.org

Страдающий амнезией через торрент piratbit.org

Размер: 1.28 GB | Добавлен: 6 лет 2 мес. назад | Торрент скачан:203 раза
Смотреть онлайн Страдающий амнезией | Скачать    Ребята, помогите собрать деньги на оплату серверов!!!

02-09-2015 15:18 Страдающий амнезией Скачать торрент  


Страдающий амнезией / Amnesiac


ИНФОРМАЦИЯ:
Год выпуска:2015
Страна: США
Жанр: ужасы, триллер, драма, детектив
Продолжительность: 01:24:30
Перевод: Любительский (двухголосый) [datynet & Galina Vasyukova]
Режиссер: Майкл Полиш

В Ролях:


Кейт Босворт (Woman), Уэс Бентли (Man), Оливия Роуз Кигэн (Audrey), Шэшони Холл (Detective), Ричард Рили (Postman), Патрик Бошо (Doctor), Миа Баррон (Officer Rogers)

Описание:
История о человеке, который просыпается в постели с потерей памяти, в результате несчастного случая.Он начинают подозревать, что его жена, может вовсе не его настоящая жена. И что паутина лжи и обмана окутала дом, в котором он превратился в заключенного.

  • Мировая премьера:14 августа 2015

    ТЕХ.ДАННЫЕ:
    Качество: WEB-DLRip
    Формат: AVI
    Видео кодек: XviD
    Аудио кодек: AC3
    Видео: XviD, 720x304 (2.35:1), 1873 kbps, 23,976 fps, 0,357 bpp
    Аудио: AC3 / 2.0 / 48 kHz / 192 kbps / 16 bit


    General
    Complete name : D:\Торенты\Amnesiac.2015.WEB-DLRip.avi
    Format : AVI
    Format/Info : Audio Video Interleave
    File size : 1.28 GiB
    Duration : 1h 24mn
    Overall bit rate : 2 160 Kbps
    Writing application : VirtualDubMod 1.5.10.3 | www.virtualdub-fr.org || (build 2550/release)
    Writing library : VirtualDubMod build 2550/release

    Video
    ID : 0
    Format : MPEG-4 Visual
    Format profile : Advanced Simple@L5
    Format settings, BVOP : 2
    Format settings, QPel : No
    Format settings, GMC : No warppoints
    Format settings, Matrix : Default (H.263)
    Muxing mode : Packed bitstream
    Codec ID : XVID
    Codec ID/Hint : XviD
    Duration : 1h 24mn
    Bit rate : 1 874 Kbps
    Width : 720 pixels
    Height : 304 pixels
    Display aspect ratio : 2.35:1
    Frame rate : 23.976 fps
    Color space : YUV
    Chroma subsampling : 4:2:0
    Bit depth : 8 bits
    Scan type : Progressive
    Compression mode : Lossy
    Bits/(Pixel*Frame) : 0.357
    Stream size : 1.11 GiB (87%)
    Writing library : XviD 66

    Audio
    ID : 1
    Format : AC-3
    Format/Info : Audio Coding 3
    Mode extension : CM (complete main)
    Codec ID : 2000
    Duration : 1h 24mn
    Bit rate mode : Constant
    Bit rate : 192 Kbps
    Channel(s) : 2 channels
    Channel positions : Front: L R
    Sampling rate : 48.0 KHz
    Bit depth : 16 bits
    Compression mode : Lossy
    Stream size : 116 MiB (9%)
    Alignment : Split accross interleaves
    Скриншоты:


    © Оформление by Ворон
    piratbit.org



  • Скачать Страдающий амнезией через торрент https://pic1.kartinco.top/images/61/ordi9.jpg Скачать, смотреть онлайн Страдающий амнезией бесплантно в хорошем качестве Описание: История о человеке, который просыпается в постели с потерей памяти, в результате несчастного случая.Он начинают подозревать, что ... 10 10 13
    Торрент: Зарегистрирован [2015-09-02 15:18] · скачан: 203 раз
    Статус: T временная
    Размер: 1.28 GB
    Как cкачать? Как скачать Страдающий амнезией через торрент | UTorrent

    % Раздел Тема Автор DL S | L
    T Фильмы 2015 (Звук TS, Cam, VO, DVO) [ 1.46 GB ] Страдающий амнезией / Amnesiac [2015 BDRip Любительский [datynet & Galina Vasyukova] Twi7ter Скачать
    1 | 0
    T Фильмы (WEB-DL 720p, 1080p) [ 2.9 GB ] Страдающий амнезией / Amnesiac [2015 WEBRip 720p Любительский Ворон Скачать
    1 | 0

    28-11-2019 20:33  

    Отключить всю рекламу на сайте

    02-09-2015 17:38 Страдающий амнезией Скачать торрент  

    Кто помнит этот фильм?piratbit.org



    02-09-2015 23:35 Страдающий амнезией Скачать торрент  

    в каком смысле "кто помнит"? вроде 2015 года кин. рейт на imdb не очень, идея сильно заезженная, в переводе наверняка матов не к месту выше крыши... качну только потому что смотреть больше нечего. раздающему спасибо.piratbit.org



      Дорогой пользователь! Огромная просьба, поблагодарите релизера, оцените раздачу и оставьте свои комментарий, если Вы скачали Страдающий амнезией через торрент бесплатно!
      Комментировать посты могут только пользователи прошедшие не сложную регистрацию
      Показать сообщения:    

      Страдающий амнезией через торрент
      Скачать бесплатно Страдающий амнезией
      Страдающий амнезией скачать торрент
      Страдающий амнезией смотреть онлайн
      Cкачать фильм Страдающий амнезией бесплатно
      Страдающий амнезией скачать торрент в хорошем качестве
      Страдающий амнезией смотреть онлайн бесплатно в хорошем качестве


      Вы не можете начинать темы
      Вы не можете отвечать на сообщения
      Вы не можете редактировать свои сообщения
      Вы не можете удалять свои сообщения
      Вы не можете голосовать в опросах
      Вы не можете прикреплять файлы к сообщениям
      Вы можете скачивать файлы