Death Stranding+DLC+АВТОАКТИВАЦИЯ

iTunes

iTunes

iTunes

1

iTunes

iTunes

iTunes

iTunes

iTunes

30
pack

$ от Little Big

ВАЖНО

!!Акция!!

Alien_RageХит недели

RePack

Resident Evil 21

ИГРА 18+

pack

RePack

jed

!!Акция!!

Alien_Rage

RePack

fifa19

RePack

Assassins Creed: Odyssey

RePack

NEED FOR SPEED™ PAYBACK

4 сезон

9 сезон

Бесстыжие 9 сезон

Все сериалы

все сериалы на PB.wtf

RePack

FAR CRY 5
  

Пандорум / Pandorum (Кристиан Алверт / Christian Alvart) [2009, Германия, США, фантастика, боевик, триллер, BDRip 720p] DUB Sub rus piratbit.org

Пандорум через торрент piratbit.org

Размер: 8.44 GB | Добавлен: 10 лет назад | Торрент скачан:90 раз
Скачать  

05-07-2010 19:34 Пандорум Скачать торрент  

Пандорум / Pandorum

«Не бойся конца света, бойся того, что будет потом»

Страна: Германия, США
Жанр: фантастика, боевик, триллер
Год выпуска: 2009
Продолжительность: 01:47:52
Перевод: Профессиональный (дублированный) + (многоголосый закадровый ukr) + (одноголосый закадровый, Ю.Немахов)
Cубтитры: Russian, English, Ukrainian (на моменты без перевода)

Режиссер: Кристиан Алверт / Christian Alvart
Сценарий: Трейвис Миллоу, Кристиан Алверт
Продюсер: Пол У. С. Андерсон, Джереми Болт, Astrid Kühberger, ...
Оператор: Ведиго фон Шульцендорфф
Композитор: Майкл Бритч

Рейтинг R - Детям до 17 лет обязательно присутствие родителей


В ролях: Деннис Куэйд, Бен Фостер, Кэм Жиганде, Антье Трое, Кунг Ле, Эдди Роус, Норман Ридус, Андре Хеннике, Фридерике Кемптер, Нильс-Бруно Шмидт

Описание: В безднах космоса движется звездолет. Два члена команды, пробудившиеся от гиперсна, оказываются в сложной ситуации: оборудование не работает, вспомнить они ничего не могут. Какова была их миссия? Сколько времени прошло? Где они? Кто они? На все эти вопросы у них нет ответов. К тому же, на корабле обнаруживаются чужие — злобные воины, которые крушат все на своем пути.

У космических путешественников очень мало времени. Теперь для них собственные жизни — не самое главное, ибо только от них двоих, возможно, зависит спасение человечества. Нужно любой ценой восстановить управление кораблем, пока загадочный Пандорум не взял Влacть в свои руки.

Качество: BDRip 720p
Формат: MKV
Видео: 1280x544 at 24.000 fps (True24p), x264@L4.1, 2pass, ~7195 kbps avg
Аудио#1: Russian: 48 kHz, AC3, 3/2 (L,C,R,l,r) + LFE ch, ~384.00 kbps avg |Дубляж, R5|
Аудио#2: Ukrainian: 48 kHz, AC3, 3/2 (L,C,R,l,r) + LFE ch, ~384.00 kbps avg |Многоголосый закадровый, R5|
Аудио#3: Russian: 48 kHz, DTS, 3/2 (L,C,R,l,r) + LFE ch, ~1536.00 kbps avg |Одноголосый закадровый, Ю.Немахов|
Аудио#4: English: 48 kHz, DTS, 3/2 (L,C,R,l,r) + LFE ch, ~1536.00 kbps avg
Аудио#5:English: 48 kHz, AC3, 2/0 (L,R) ch, ~224.00 kbps avg |Commentary with Director Christian Alvart and Producer Jeremy Bolt|
Субтитры: Russian, English, Ukrainian (на моменты без перевода)
General
Complete name : F:\Torrent\Pandorum.2009.720p.BluRay.2xRus.Ukr.Eng.HDCLUB.mkv
Format : Matroska
File size : 8.44 GiB
Duration : 1h 47mn
Overall bit rate : 11.2 Mbps
Movie name : Pandorum (2009) - Release for HDCLUB
Encoded date : UTC 2010-06-27 20:43:32
Writing application : mkvmerge v3.3.0 ('Language') built on Mar 24 2010 14:59:24
Writing library : libebml v0.8.0 + libmatroska v0.9.0

Video
ID : 1
Format : AVC
Format/Info : Advanced Video Codec
Format profile : High@L4.1
Format settings, CABAC : Yes
Format settings, ReFrames : 5 frames
Muxing mode : Container profile=Unknown@4.1
Codec ID : V_MPEG4/ISO/AVC
Duration : 1h 47mn
Bit rate : 6 960 Kbps
Nominal bit rate : 7 195 Kbps
Width : 1 280 pixels
Height : 544 pixels
Display aspect ratio : 2.35:1
Frame rate : 24.000 fps
Resolution : 8 bits
Colorimetry : 4:2:0
Scan type : Progressive
Bits/(Pixel*Frame) : 0.416
Stream size : 5.25 GiB (62%)
Title : Release for HDCLUB
Writing library : x264 core 80 r1376M 3feaec2
Encoding settings : cabac=1 / ref=5 / deblock=1:-3:-3 / analyse=0x3:0x113 / me=umh / subme=10 / psy=1 / psy_rd=0.8:0.0 / mixed_ref=1 / me_range=64 / chroma_me=1 / trellis=2 / 8x8dct=1 / cqm=0 / deadzone=21,11 / fast_pskip=0 / chroma_qp_offset=-2 / threads=8 / sliced_threads=0 / nr=0 / decimate=1 / mbaff=0 / constrained_intra=0 / bframes=6 / b_pyramid=0 / b_adapt=2 / b_bias=0 / direct=3 / wpredb=1 / wpredp=2 / keyint=250 / keyint_min=25 / scenecut=40 / rc=2pass / mbtree=0 / bitrate=7195 / ratetol=1.0 / qcomp=0.60 / qpmin=10 / qpmax=51 / qpstep=4 / cplxblur=20.0 / qblur=0.5 / ip_ratio=1.40 / pb_ratio=1.30 / aq=1:0.60
Language : English

Audio #1
ID : 2
Format : AC-3
Format/Info : Audio Coding 3
Codec ID : A_AC3
Duration : 1h 47mn
Bit rate mode : Constant
Bit rate : 384 Kbps
Channel(s) : 6 channels
Channel positions : Front: L C R, Side: L R, LFE
Sampling rate : 48.0 KHz
Stream size : 296 MiB (3%)
Title : AC3 5.1 @ 384 kbps - Дублированный
Language : Russian

Audio #2
ID : 3
Format : AC-3
Format/Info : Audio Coding 3
Codec ID : A_AC3
Duration : 1h 47mn
Bit rate mode : Constant
Bit rate : 384 Kbps
Channel(s) : 6 channels
Channel positions : Front: L C R, Side: L R, LFE
Sampling rate : 48.0 KHz
Stream size : 296 MiB (3%)
Title : AC3 5.1 @ 384 kbps - Многоголосый закадровый
Language : Ukrainian

Audio #3
ID : 4
Format : DTS
Format/Info : Digital Theater Systems
Codec ID : A_DTS
Duration : 1h 47mn
Bit rate mode : Constant
Bit rate : 1 510 Kbps
Channel(s) : 6 channels
Channel positions : Front: L C R, Side: L R, LFE
Sampling rate : 48.0 KHz
Resolution : 16 bits
Stream size : 1.14 GiB (13%)
Title : DTS 5.1 @ 1536 kbps - Одноголосый закадровый, Ю.Немахов
Language : Russian

Audio #4
ID : 5
Format : DTS
Format/Info : Digital Theater Systems
Codec ID : A_DTS
Duration : 1h 47mn
Bit rate mode : Constant
Bit rate : 1 510 Kbps
Channel(s) : 6 channels
Channel positions : Front: L C R, Side: L R, LFE
Sampling rate : 48.0 KHz
Resolution : 24 bits
Stream size : 1.14 GiB (13%)
Title : DTS 5.1 @ 1536 kbps
Language : English

Audio #5
ID : 6
Format : AC-3
Format/Info : Audio Coding 3
Codec ID : A_AC3
Duration : 1h 47mn
Bit rate mode : Constant
Bit rate : 224 Kbps
Channel(s) : 2 channels
Channel positions : Front: L R
Sampling rate : 48.0 KHz
Stream size : 173 MiB (2%)
Title : AC3 2.0 @ 224 kbps - Комментарии
Language : English

Text #1
ID : 7
Format : UTF-8
Codec ID : S_TEXT/UTF8
Codec ID/Info : UTF-8 Plain Text
Language : Russian

Text #2
ID : 8
Format : UTF-8
Codec ID : S_TEXT/UTF8
Codec ID/Info : UTF-8 Plain Text
Title : На моменты без переревода.
Language : Ukrainian

Text #3
ID : 9
Format : UTF-8
Codec ID : S_TEXT/UTF8
Codec ID/Info : UTF-8 Plain Text
Language : English

Menu #1
00:00:00.000 : en:00:00:00.000
00:04:36.083 : en:00:04:36.083
00:07:32.208 : en:00:07:32.208
00:13:53.417 : en:00:13:53.417
00:18:54.042 : en:00:18:54.042
00:24:03.542 : en:00:24:03.542
00:28:36.958 : en:00:28:36.958
00:34:46.417 : en:00:34:46.417
00:39:20.333 : en:00:39:20.333
00:45:37.667 : en:00:45:37.667
00:53:21.250 : en:00:53:21.250
00:59:53.000 : en:00:59:53.000
01:08:46.417 : en:01:08:46.417
01:14:05.292 : en:01:14:05.292
01:20:54.958 : en:01:20:54.958
01:28:04.708 : en:01:28:04.708
01:36:42.917 : en:01:36:42.917
01:41:20.125 : en:01:41:20.125

Menu #2
00:00:00.000 : en:00:00:00.000
00:04:36.083 : en:00:04:36.083
00:07:32.208 : en:00:07:32.208
00:13:53.417 : en:00:13:53.417
00:18:54.042 : en:00:18:54.042
00:24:03.542 : en:00:24:03.542
00:28:36.958 : en:00:28:36.958
00:34:46.417 : en:00:34:46.417
00:39:20.333 : en:00:39:20.333
00:45:37.667 : en:00:45:37.667
00:53:21.250 : en:00:53:21.250
00:59:53.000 : en:00:59:53.000
01:08:46.417 : en:01:08:46.417
01:14:05.292 : en:01:14:05.292
01:20:54.958 : en:01:20:54.958
01:28:04.708 : en:01:28:04.708
01:36:42.917 : en:01:36:42.917
01:41:20.125 : en:01:41:20.125





Теперь в МОИХ РАЗДАЧАХ ® "море СЕРЕБРА и ЗОЛОТА", соответственно засчитывается
либо половина закаченного
(СЕРЕБРО), либо вообще не идет в зачет скаченное (ЗОЛОТО)!




piratbit.org



Скачать Пандорум через торрент http://i8.fastpic.ru/big/2010/0705/31/384123956720ccdcc328fdea02a9f931.jpg Скачать фильм Пандорум через торрент бесплантно в хорошем качестве Описание: В безднах космоса движется звездолет. Два члена команды, пробудившиеся от гиперсна, оказываются в сложной ситуации: оборудование ... 10 10 3
Info! Золотая раздача, скачанное не засчитывается.
Торрент: Зарегистрирован [2010-07-05 19:51] · скачан: 90 раз
Статус: √ проверено
Размер: 8.44 GB
Как cкачать? Как скачать Пандорум через торрент | qTorrent

28-11-2019 20:33  

Отключить всю рекламу на сайте

27-07-2010 10:07 Пандорум Скачать торрент  

Мне фильм не понравился( ждал большегоpiratbit.org



    Дорогой пользователь! Огромная просьба, поблагодарите релизера, оцените раздачу и оставьте свои комментарий, если Вы скачали Пандорум через торрент бесплатно! Внесите свою лепту в развитие PiratBit!
    Комментировать посты могут только пользователи прошедшие не сложную регистрацию
    Показать сообщения:    

    Пандорум через торрент
    Скачать бесплатно Пандорум
    Пандорум скачать торрент
    Пандорум смотреть онлайн
    Cкачать фильм Пандорум бесплатно
    Пандорум скачать торрент в хорошем качестве
    Пандорум смотреть онлайн бесплатно в хорошем качестве


    Вы не можете начинать темы
    Вы не можете отвечать на сообщения
    Вы не можете редактировать свои сообщения
    Вы не можете удалять свои сообщения
    Вы не можете голосовать в опросах
    Вы не можете прикреплять файлы к сообщениям
    Вы можете скачивать файлы