Ссылка на приватное зеркало нашего сайта всего за 1$. Внимание количество ограничено!!!

2 сезон

iTunes

iTunes

1

iTunes

iTunes

iTunes

WEBRip

iTunes

30
pack

Вам бонус

ВАЖНО

!!Акция!!

Alien_RageХит недели

RePack

Horizon Zero Dawn

ИГРА 18+

pack

RePack

jed

!!Акция!!

Alien_Rage

RePack

fifa19

RePack

Assassins Creed: Odyssey

RePack

NEED FOR SPEED™ PAYBACK

4 сезон

9 сезон

Бесстыжие 9 сезон

Все сериалы

все сериалы на PB.wtf

RePack

FAR CRY 5
  

Райское озеро / Eden Lake (Джеймс Уоткинс / James Watkins) [2008, ужасы, триллер, BDRip-AVC от potroks] DUB Лицензия piratbit.org

Райское озеро через торрент piratbit.org

Размер: 2.18 GB | Добавлен: 5 лет назад | Торрент скачан:240 раз
Скачать  

05-09-2015 14:00 Райское озеро Скачать торрент  

Райское озеро / Eden Lake
«Они всего лишь дети...»
Год выпуска: 2008
Страна: Великобритания / Rollercoaster Films
Жанр: ужасы, триллер
Продолжительность: 01:30:57
Перевод: Дубляж [R5]
Субтитры: русские, английские
Навигация по главам: есть
Режиссер: Джеймс Уоткинс / James Watkins
В ролях:

Келли Райлли (Jenny), Майкл Фассбендер (Steve), Джек О’Коннелл (Brett), Томас Тургус (Cooper), Финн Аткинс (Paige), Джеймс Берроуз (Harry), Том Гилл (Ricky), Джумэйн Хантер (Mark), Шон Дули (Jon), Тара Эллис (Abi), Лоррэйн Брюс (Tanya), Джеймс Ганди (Adam)
Описание: Молодая парочка едет за город, чтобы провести романтический уикенд на берегу Райского озера вдали от людей, в диком лесу. Стив и Дженни планируют пожениться, прожить долго и умереть в один день. Никто из них не думал, чем закончится эта поездка.

Качество: BDRip-AVC
Формат: MKV
Видео кодек: AVC
Аудио кодек: AC3
Видео: AVC, 1092x464 (2.35:1), 2599 kbps, 24 fps, 0,214 bit/pixel
Аудио №1: AC3 / 5.1 / 48 kHz / 384 kbps / 16 bit | RUS
Аудио №2: AC3 / 5.0 / 48 kHz / 448 kbps / 16 bit | ENG
Релиз группы:
Автор рипа: potroks

Код:

Общее
Уникальный идентификатор : 225200306939674108394611541059122043215 (0xA96C005FD0D17A6AA1F3593D4FF1194F)
Полное имя : N:\Ужасы\Rayskoye.Ozero.2008.DUAL.BDRip.x264.-HELLYWOOD.mkv
Формат : Matroska
Версия формата : Version 4 / Version 2
Размер файла : 2,18 Гбайт
Продолжительность : 1 ч. 30 м.
Общий поток : 3431 Кбит/сек
Название фильма : Eden Lake (2008) - HELLYWOOD
Дата кодирования : UTC 2015-09-05 09:20:54
Программа кодирования : mkvmerge v5.9.0 ('On The Loose') built on Dec 15 2012 16:39:58
Библиотека кодирования : libebml v1.3.0 + libmatroska v1.4.0

Видео
Идентификатор : 1
Формат : AVC
Формат/Информация : Advanced Video Codec
Профиль формата : High@L4.1
Параметр CABAC формата : Да
Параметр ReFrames формата : 10 кадров
Идентификатор кодека : V_MPEG4/ISO/AVC
Продолжительность : 1 ч. 30 м.
Битрейт : 2599 Кбит/сек
Ширина : 1092 пикселя
Высота : 464 пикселя
Соотношение сторон : 2,35:1
Режим частоты кадров : Постоянный
Частота кадров : 24,000 кадра/сек
Цветовое пространство : YUV
Субдискретизация насыщенности : 4:2:0
Битовая глубина : 8 бит
Тип развёртки : Прогрессивная
Бит/(Пиксели*Кадры) : 0.214
Размер потока : 1,61 Гбайт (74%)
Заголовок : potroks
Библиотека кодирования : x264 core 148 r2597M e86f3a1
Настройки программы : cabac=1 / ref=10 / deblock=1:-3:-3 / analyse=0x3:0x133 / me=umh / subme=11 / psy=1 / psy_rd=1.00:0.00 / mixed_ref=1 / me_range=48 / chroma_me=1 / trellis=2 / 8x8dct=1 / cqm=0 / deadzone=21,11 / fast_pskip=0 / chroma_qp_offset=-2 / threads=10 / lookahead_threads=2 / sliced_threads=0 / nr=0 / decimate=1 / interlaced=0 / bluray_compat=0 / constrained_intra=0 / bframes=11 / b_pyramid=2 / b_adapt=2 / b_bias=0 / direct=3 / weightb=1 / open_gop=0 / weightp=2 / keyint=250 / keyint_min=23 / scenecut=40 / intra_refresh=0 / rc=2pass / mbtree=0 / bitrate=2599 / ratetol=1.0 / qcomp=0.70 / qpmin=0 / qpmax=69 / qpstep=4 / cplxblur=20.0 / qblur=0.5 / ip_ratio=1.40 / pb_ratio=1.30 / aq=1:0.80
Язык : English
Default : Да
Forced : Нет
Цветовой диапазон : Limited
Основные цвета : BT.709
Характеристики трансфера : BT.709
Коэффициенты матрицы : BT.709

Аудио #1
Идентификатор : 2
Формат : AC-3
Формат/Информация : Audio Coding 3
Расширение режима : CM (complete main)
Параметр Endianness формата : Big
Идентификатор кодека : A_AC3
Продолжительность : 1 ч. 30 м.
Вид битрейта : Постоянный
Битрейт : 384 Кбит/сек
Каналы : 6 каналов
Расположение каналов : Front: L C R, Side: L R, LFE
Частота : 48,0 КГц
Метод сжатия : С потерями
Размер потока : 250 Мбайт (11%)
Заголовок : Dub | DD 5.1 @ 384 kbps - R5
Язык : Russian
Default : Да
Forced : Нет

Аудио #2
Идентификатор : 3
Формат : AC-3
Формат/Информация : Audio Coding 3
Расширение режима : CM (complete main)
Параметр Endianness формата : Big
Идентификатор кодека : A_AC3
Продолжительность : 1 ч. 30 м.
Вид битрейта : Постоянный
Битрейт : 448 Кбит/сек
Каналы : 5 каналов
Расположение каналов : Front: L C R, Side: L R
Частота : 48,0 КГц
Метод сжатия : С потерями
Размер потока : 291 Мбайт (13%)
Заголовок : Original | DD 5.1 @ 448 kbps
Язык : English
Default : Нет
Forced : Нет

Текст #1
Идентификатор : 4
Формат : UTF-8
Идентификатор кодека : S_TEXT/UTF8
Идентификатор кодека/Информация : UTF-8 Plain Text
Язык : Russian
Default : Нет
Forced : Нет

Текст #2
Идентификатор : 5
Формат : UTF-8
Идентификатор кодека : S_TEXT/UTF8
Идентификатор кодека/Информация : UTF-8 Plain Text
Язык : English
Default : Нет
Forced : Нет

Меню
00:00:00.000 : en:(01)00:00:00:000
00:05:00.000 : en:(02)00:05:00:000
00:10:00.000 : en:(03)00:10:00:000
00:15:00.000 : en:(04)00:15:00:000
00:20:00.000 : en:(05)00:20:00:000
00:25:00.000 : en:(06)00:25:00:000
00:30:00.000 : en:(07)00:30:00:000
00:35:00.000 : en:(08)00:35:00:000
00:40:00.000 : en:(09)00:40:00:000
00:45:00.000 : en:(10)00:45:00:000
00:50:00.000 : en:(11)00:50:00:000
00:55:00.000 : en:(12)00:55:00:000
01:00:00.000 : en:(13)01:00:00:000
01:05:00.000 : en:(14)01:05:00:000
01:10:00.000 : en:(15)01:10:00:000
01:15:00.000 : en:(16)01:15:00:000
01:20:00.000 : en:(17)01:20:00:000
01:25:00.000 : en:(18)01:25:00:000
01:30:00.000 : en:(19)01:30:00:000

piratbit.org



Скачать Райское озеро через торрент http://i65.fastpic.ru/big/2015/0905/f3/b709a49eb99badb55d2fbc97ff51fbf3.png Скачать фильм Райское озеро через торрент бесплантно в хорошем качестве Описание: Молодая парочка едет за город, чтобы провести романтический уикенд на берегу Райского озера вдали от людей, в диком лесу. Стив и ... 9.6 10 5
Торрент: Зарегистрирован [2015-09-05 14:00] · скачан: 240 раз
Статус: √ проверено
Размер: 2.18 GB
Как cкачать? Как скачать Райское озеро через торрент | qTorrent

28-11-2019 20:33  

Отключить всю рекламу на сайте

05-09-2015 15:20 Райское озеро Скачать торрент  

ониж дети !!! хороший фильм.piratbit.org



06-09-2015 04:40 Райское озеро Скачать торрент  

Таких детей надо драть в жопу поочереди :ireful:piratbit.org



03-05-2016 06:49 Райское озеро Скачать торрент  

gaben писал(а):

Таких детей надо драть в жопу поочередиpiratbit.org



03-05-2016 09:22 Райское озеро Скачать торрент  

shurgan1980 писал(а):

gaben писал(а):

Таких детей надо драть в жопу поочереди

piratbit.org



    Дорогой пользователь! Огромная просьба, поблагодарите релизера, оцените раздачу и оставьте свои комментарий, если Вы скачали Райское озеро через торрент бесплатно! Внесите свою лепту в развитие PiratBit!
    Комментировать посты могут только пользователи прошедшие не сложную регистрацию
    Показать сообщения:    

    Райское озеро через торрент
    Скачать бесплатно Райское озеро
    Райское озеро скачать торрент
    Райское озеро смотреть онлайн
    Cкачать фильм Райское озеро бесплатно
    Райское озеро скачать торрент в хорошем качестве
    Райское озеро смотреть онлайн бесплатно в хорошем качестве


    Вы не можете начинать темы
    Вы не можете отвечать на сообщения
    Вы не можете редактировать свои сообщения
    Вы не можете удалять свои сообщения
    Вы не можете голосовать в опросах
    Вы не можете прикреплять файлы к сообщениям
    Вы можете скачивать файлы