1 сезон

1 сезон

iTunes

1

КиноПоиск HD

Кинопоиск HD

iTunes

13

1 сезон

RePack

30

Deluxe

ВАЖНО

ИГРА 18+

pack

RePack

MK11
pack

Легкие деньги

RePack

jed

RePack

fifa19

RePack

RDR2

RePack

NEED FOR SPEED™ PAYBACK

4 сезон

9 сезон

Бесстыжие 9 сезон

Все сериалы

все сериалы на PB.wtf

RePack

FAR CRY 5
  
Magnet ссылка

Донни Дарко / Donnie Darko (Ричард Келли) [2001 г., фантастика, триллер, драма, детектив, HDRip by Dean24] (Профессиональный многоголосый) piratbit.org

Донни Дарко через торрент piratbit.org

Размер: 2.75 GB | Добавлен: 5 лет 8 мес. назад | Торрент скачан:227 раз
Скачать  

05-09-2015 17:49 Донни Дарко Скачать торрент  

Донни Дарко / Donnie DarkoГод выпуска: 2001
Страна: США
Жанр: фантастика, триллер, драма, детектив
Продолжительность: 02:13:51
Перевод: Профессиональный многоголосый | Киномания
Субтитры: Нет

Режиссер: Ричард Келли
Продюссер: Адам Филдс, Нэнси Джавонен, Шон МакКиттрик
Сценарий: Ричард Келли

Бюджет: $6 000 000
Премьера в мире: 19 января 2001




В ролях: Джейк Джилленхол, Джена Мэлоун, Мэгги Джилленхол, Мэри МакДоннелл, Холмс Осборн, Патрик Суэйзи, Ноа Уайли, Дрю Бэрримор, Джеймс Дювал, Кэтрин Росс

Описание: К своим 16 годам старшеклассник Донни уже знает, что такое смерть. После несчастного случая, едва не стоившего ему жизни, Донни открывает в себе способности изменять время и судьбу. Перемены, случившиеся с ним, пугают всех, кто его окружает — родителей, сестер, учителей, друзей, любимую девушку.

Качество: HDRip | BDRip 720p
Формат: AVI
Видео кодек: XviD
Аудио кодек: AC3
Видео: 720x304 (2.37:1), 23.976 fps, XviD build 50 ~2548 kbps avg, 0.48 bit/pixel
Аудио: 48 kHz, AC3 Dolby Digital, 3/2 (L,C,R,l,r) + LFE ch, ~384 kbps



Автор рипа: Dean24

Общее
Полное имя : D:\Мои документы\Фильмы\Сайт\Donnie.Darko.HDRip.avi
Формат : AVI
Формат/Информация : Audio Video Interleave
Профиль формата : OpenDML
Размер файла : 2,75 Гбайт
Продолжительность : 2 ч. 13 м.
Общий поток : 2939 Кбит/сек
Программа кодирования : VirtualDubMod 1.5.10.3 | (build 2550/release)
Библиотека кодирования : VirtualDubMod build 2550/release

Видео
Идентификатор : 0
Формат : MPEG-4 Visual
Профиль формата : Advanced Simple@L5
Параметр BVOP формата : 3
Параметр QPel формата : Нет
Параметр GMC формата : Без точки перехода
Параметр матрицы формата : Default (H.263)
Идентификатор кодека : XVID
Идентификатор кодека/Подсказка : XviD
Продолжительность : 2 ч. 13 м.
Битрейт : 2545 Кбит/сек
Ширина : 720 пикселей
Высота : 304 пикселя
Соотношение сторон : 2,35:1
Частота кадров : 23,976 кадра/сек
Цветовое пространство : YUV
Субдискретизация насыщенности : 4:2:0
Битовая глубина : 8 бит
Тип развёртки : Прогрессивная
Метод сжатия : С потерями
Бит/(Пиксели*Кадры) : 0.485
Размер потока : 2,38 Гбайт (87%)
Библиотека кодирования : XviD 1.2.1 (UTC 2008-12-04)

Аудио
Идентификатор : 1
Формат : AC-3
Формат/Информация : Audio Coding 3
Расширение режима : CM (complete main)
Параметр Endianness формата : Big
Идентификатор кодека : 2000
Продолжительность : 2 ч. 13 м.
Вид битрейта : Постоянный
Битрейт : 384 Кбит/сек
Каналы : 6 каналов
Расположение каналов : Front: L C R, Side: L R, LFE
Частота : 48,0 КГц
Битовая глубина : 16 бит
Метод сжатия : С потерями
Размер потока : 368 Мбайт (13%)
Выравнивание : Разделение по промежуткам
Продолжительность промежутка : 42 мс. (1,00 видеокадр)
Время предзагрузки промежутка : 500 мс
.

piratbit.org



Скачать Донни Дарко через торрент http://i65.fastpic.ru/big/2015/0905/63/ad8024c81d476f812e9b15d7c37ed063.jpg Скачать фильм Донни Дарко через торрент бесплантно в хорошем качестве Описание: К своим 16 годам старшеклассник Донни уже знает, что такое смерть. После несчастного случая, едва не стоившего ему жизни, Донни ... 10 10 5
Info! Золотая раздача, скачанное не засчитывается.
Торрент: Зарегистрирован [2015-09-05 17:49] · скачан: 227 раз
Статус: √ проверено
Размер: 2.75 GB
Как cкачать? Как скачать Донни Дарко через торрент | UTorrent

% Раздел Тема Автор DL S | L
Фильмы с авторской озвучкой [ 1.37 GB ] Донни Дарко / Donnie Darko [2001 HDRip] [4К Remastered] [Режиссерская версия] [AVO] killermax2013 Скачать
1 | 0
Фильмы [HD 720p, 1080p] (Хороший звук DUB, MVO) [ 14.28 GB ] Донни Дарко / Donnie Darko [2001 BDRip 1080p by msltel] 4 x MVO AVO msltel Скачать
1 | 0
Фильмы [HD 720p, 1080p] (Хороший звук DUB, MVO) [ 5.6 GB ] Донни Дарко / Donnie Darko [2001 BDRip 720p by msltel] 4 x MVO AVO msltel Скачать
1 | 0
Фильмы [HD 720p, 1080p] (Хороший звук DUB, MVO) [ 6.75 GB ] Донни Дарко / Donnie Darko [2001 BDRip VO] Gredel Скачать
1 | 0
Фильмы 2001-2005 [ 1.46 GB ] Донни Дарко / Donnie Darko [Театральная версия] [2001 BDRip-AVC] -=BIGBOSS=- Скачать
1 | 0

28-11-2019 20:33  

Отключить всю рекламу на сайте

06-09-2015 17:48 Донни Дарко Скачать торрент  

до половины фильм просто шедевр а потом просто сдулся надо бы экшена или триллера побольшеpiratbit.org



    Дорогой пользователь! Огромная просьба, поблагодарите релизера, оцените раздачу и оставьте свои комментарий, если Вы скачали Донни Дарко через торрент бесплатно! Внесите свою лепту в развитие PiratBit!
    Комментировать посты могут только пользователи прошедшие не сложную регистрацию
    Показать сообщения:    

    Донни Дарко через торрент
    Скачать бесплатно Донни Дарко
    Донни Дарко скачать торрент
    Донни Дарко смотреть онлайн
    Cкачать фильм Донни Дарко бесплатно
    Донни Дарко скачать торрент в хорошем качестве
    Донни Дарко смотреть онлайн бесплатно в хорошем качестве


    Вы не можете начинать темы
    Вы не можете отвечать на сообщения
    Вы не можете редактировать свои сообщения
    Вы не можете удалять свои сообщения
    Вы не можете голосовать в опросах
    Вы не можете прикреплять файлы к сообщениям
    Вы можете скачивать файлы