Присоединяйтесь к нам в Telegram!, здесь всегда актуальный адрес сайта, оперативная поддержка и многое другое!!

>

5.9

iTunes

7.4

iTunes

9.4

1 сезон

1

7.4

2 сезон

7.2

iTunes

7.3

1 сезон

13

6.1

iTunes

8.3

Пиратка

30

ULTIMATE

pack

9.9

Лицензия

ВАЖНО

ИГРА 18+

pack

7.3

RePack

MK11

7.7

RePack

jed

7.8

RePack

fifa19

8.5

RePack

RDR2

RePack

NEED FOR SPEED™ PAYBACK

5 сезон

9 сезон

Бесстыжие 9 сезон

Все сериалы

все сериалы на PB.wtf

RePack

FAR CRY 5

Anonymous, добрый вечер, мы катастрофически не успеваем собрать деньги на оплату серверов, помогите нам пожалуйста 5,10,15р., для нас важна любая помощь . В качестве благодарности мы отключим Вам всю рекламу на сайте (укажите свой ник в строку Ваше имя)!

×
  
Magnet ссылка

9 апреля / 9. april (Рони Эзра) [2015, драма, военный, HDRip, Любительский (одноголосый) [Project Web Money] piratbit.org

9 апреля через торрент piratbit.org

Размер: 1.37 GB | Добавлен: 6 лет 2 мес. назад | Торрент скачан:174 раза
Смотреть онлайн 9 апреля | Скачать    Ребята, помогите собрать деньги на оплату серверов!!!

06-09-2015 13:58 9 апреля Скачать торрент  


9 апреля / 9. april


ИНФОРМАЦИЯ:
Год выпуска:2015
Страна: Дания
Жанр: драма, военный
Продолжительность: 01:32:32
Перевод: Любительский (одноголосый) [Project Web Money]
Режиссер: Рони Эзра

В Ролях:


Ларс Миккельсен (Oberstløjtnant Hintz), Йохан Филип Асбек (Sekondløjtnant Sand), Хоаким Фьелструп (Sergent Bundgaard), Густав Дюэкьер Гис (Menig Andersen), Себастьян Булл Сарнинг (Menig Lundgren), Pelle Emil Hebsgaard (Guard), Lukas Schwarz Thorsteinsson (Signalofficer), Мартин Грайс (Løjtnant Gjermansen), Jesper Hagelskær Paasch (Løjtnant Jepsen), Maylenah Marion Dalgaard (Gående Kone), Метте Мунк Плум (Bondekone), Эллиотт Кроссе Хоув (Menig Lassen)

Описание:
Ранним утром 9 апреля 1940 года датская армия была поднята по тревоге. Немцы перешли границу. Дания вступает в войну против сильнейшей армии в Европе.
Сюжет фильма рассказывает о втором лейтенанте Сэнде и его велосипедной компании - в этот роковой час именно они будут первыми датскими солдатами встретившими врага в бою.

  • Мировая премьера:9 марта 2015

    ТЕХ.ДАННЫЕ:
    Качество: HDRip
    Формат: AVI
    Видео кодек: XviD
    Аудио кодек: AC3
    Видео: XviD, 720x384 (1.875), 1829 kbps, 24 fps, 0,276 bpp
    Аудио: AC3 / 2.0 / 48 kHz / 192 kbps / 16 bit


    General
    Complete name : D:\Торенты\9.A.2015.HDRip.avi
    Format : AVI
    Format/Info : Audio Video Interleave
    File size : 1.37 GiB
    Duration : 1h 32mn
    Overall bit rate : 2 114 Kbps
    Writing application : VirtualDubMod 1.5.10.3 | www.virtualdub-fr.org || (build 2550/release)
    Writing library : VirtualDubMod build 2550/release

    Video
    ID : 0
    Format : MPEG-4 Visual
    Format profile : Advanced Simple@L5
    Format settings, BVOP : 1
    Format settings, QPel : No
    Format settings, GMC : No warppoints
    Format settings, Matrix : Default (H.263)
    Codec ID : XVID
    Codec ID/Hint : XviD
    Duration : 1h 32mn
    Bit rate : 1 829 Kbps
    Width : 720 pixels
    Height : 384 pixels
    Display aspect ratio : 1.875
    Frame rate : 24.000 fps
    Color space : YUV
    Chroma subsampling : 4:2:0
    Bit depth : 8 bits
    Scan type : Progressive
    Compression mode : Lossy
    Bits/(Pixel*Frame) : 0.276
    Stream size : 1.18 GiB (87%)
    Writing library : XviD 1.2.1 (UTC 2008-12-04)

    Audio
    ID : 1
    Format : AC-3
    Format/Info : Audio Coding 3
    Mode extension : CM (complete main)
    Codec ID : 2000
    Duration : 1h 32mn
    Bit rate mode : Constant
    Bit rate : 192 Kbps
    Channel(s) : 2 channels
    Channel positions : Front: L R
    Sampling rate : 48.0 KHz
    Bit depth : 16 bits
    Compression mode : Lossy
    Stream size : 127 MiB (9%)
    Alignment : Split accross interleaves
    Скриншоты:


    © Оформление by Ворон
    piratbit.org



  • Скачать 9 апреля через торрент https://pic1.kartinco.top/images/61/ordi9.jpg Скачать, смотреть онлайн 9 апреля бесплантно в хорошем качестве Описание: Ранним утром 9 апреля 1940 года датская армия была поднята по тревоге. Немцы перешли границу. Дания вступает в войну против ... 9.8 10 8
    Торрент: Зарегистрирован [2015-09-06 13:58] · скачан: 174 раз
    Статус: T временная
    Размер: 1.37 GB
    Как cкачать? Как скачать 9 апреля через торрент | UTorrent

    % Раздел Тема Автор DL S | L
    R.G. Resident & PiratVoice - Фильмы, Видео [ 1.46 GB ] 9 апреля / 9. april [2015 военный BDRip-AVC Авторский Д.Есарев] R.G.Resident schultz Скачать
    1 | 0
    Фильмы (Blu-ray, BD-Remux, HDDVD) [ 27.78 GB ] 9 апреля / 9. april [2015 военный Blu-Ray от HDClub / Custom / Есарев] Ворон Скачать
    1 | 0
    Фильмы с авторской озвучкой [ 1.47 GB ] 9 апреля / 9. april [2015 военный HDRip Авторский одноголосый "Д.Есарев"] coc900 Скачать
    1 | 0

    28-11-2019 20:33  

    Отключить всю рекламу на сайте

    16-12-2015 21:04 9 апреля Скачать торрент  

    Фильм понравился, хотя вначале был детский сад на велосипедах с обязательным кофе по утрам (Европа !!!). Но с началом войнушки становилось все более захватывающе и жалко датских воинов. Очень похоже,что так все и было в реале. Все бегут, бегут, бегут ...(по Леонтьеву)......., а танк все едет. Ни гранат, ни пушек, объявили Германии войну !!! Укатайка. Я бы дал 7 за реальность показа событий. Ворону поклон за хорошую военную суперДРАММУ. хотя батальные сцены были на уровне. Еще бы.piratbit.org



      Дорогой пользователь! Огромная просьба, поблагодарите релизера, оцените раздачу и оставьте свои комментарий, если Вы скачали 9 апреля через торрент бесплатно!
      Комментировать посты могут только пользователи прошедшие не сложную регистрацию
      Показать сообщения:    

      9 апреля через торрент
      Скачать бесплатно 9 апреля
      9 апреля скачать торрент
      9 апреля смотреть онлайн
      Cкачать фильм 9 апреля бесплатно
      9 апреля скачать торрент в хорошем качестве
      9 апреля смотреть онлайн бесплатно в хорошем качестве


      Вы не можете начинать темы
      Вы не можете отвечать на сообщения
      Вы не можете редактировать свои сообщения
      Вы не можете удалять свои сообщения
      Вы не можете голосовать в опросах
      Вы не можете прикреплять файлы к сообщениям
      Вы можете скачивать файлы