Присоединяйтесь к нам в Telegram!, здесь всегда актуальный адрес сайта, оперативная поддержка и многое другое!!

>

5.9

iTunes

7.4

iTunes

9.4

1 сезон

1

7.4

2 сезон

7.2

iTunes

7.3

1 сезон

13

6.1

iTunes

8.3

Пиратка

30

ULTIMATE

pack

9.9

Лицензия

ВАЖНО

ИГРА 18+

pack

7.3

RePack

MK11

7.7

RePack

jed

7.8

RePack

fifa19

8.5

RePack

RDR2

RePack

NEED FOR SPEED™ PAYBACK

5 сезон

9 сезон

Бесстыжие 9 сезон

Все сериалы

все сериалы на PB.wtf

RePack

FAR CRY 5

Anonymous, добрый вечер, мы катастрофически не успеваем собрать деньги на оплату серверов, помогите нам пожалуйста 5,10,15р., для нас важна любая помощь . В качестве благодарности мы отключим Вам всю рекламу на сайте (укажите свой ник в строку Ваше имя)!

×
  
Magnet ссылка

Z – значит Захария / Z for Zachariah (Крэйг Зобел) [2015, фантастика, драма, триллер, HDRip, Любительский (одноголосый) [Xixidok] piratbit.org

Z – значит Захария через торрент piratbit.org

Размер: 1.29 GB | Добавлен: 6 лет 2 мес. назад | Торрент скачан:319 раз
Смотреть онлайн Z – значит Захария | Скачать    Ребята, помогите собрать деньги на оплату серверов!!!

07-09-2015 13:22 Z – значит Захария Скачать торрент  


Z – значит Захария / Z for Zachariah
««After the end of the world she thought she was alone. She was wrong»»

ИНФОРМАЦИЯ:
Год выпуска:2015
Страна: Исландия, США
Жанр: фантастика, драма, триллер
Продолжительность: 01:37:55
Перевод: Любительский (одноголосый) [Xixidok]
Режиссер: Крэйг Зобел

В Ролях:


Чиветель Эджиофор (Loomis), Марго Робби (Ann Burden), Крис Пайн (Caleb)

Описание:
В разрушенном ядерной войной мире чудом смогла выжить 16-летняя Энн. Она встречает взрослого ученого по имени Люмис, который уже потерял надежду найти свою семью. Энн взрослеет, между ней и Люмисом рождаются чувства. Ситуация усложняется, когда появляется третий выживший - молодой парень Калеб. Начинается война за последнюю женщину на земле...

  • Мировая премьера:24 января 2015

    ТЕХ.ДАННЫЕ:
    Качество: HDRip
    Формат: AVI
    Видео кодек: XviD
    Аудио кодек: MP3
    Видео: XviD, 720x304 (2.35:1), 1604 kbps, 23,976 fps, 0,306 bpp
    Аудио: MP3 / 2.0 / 44 kHz / 192 kbps /


    General
    Complete name : D:\Торенты\Z.for.Zachariah.2015.HDRip.Xixidok.avi
    Format : AVI
    Format/Info : Audio Video Interleave
    File size : 1.29 GiB
    Duration : 1h 37mn
    Overall bit rate : 1 880 Kbps
    Writing application : VirtualDubMod 1.5.10.3 (build 2550/release)
    Writing library : VirtualDubMod build 2550/release

    Video
    ID : 0
    Format : MPEG-4 Visual
    Format profile : Advanced Simple@L5
    Format settings, BVOP : 2
    Format settings, QPel : No
    Format settings, GMC : No warppoints
    Format settings, Matrix : Default (H.263)
    Muxing mode : Packed bitstream
    Codec ID : XVID
    Codec ID/Hint : XviD
    Duration : 1h 37mn
    Bit rate : 1 604 Kbps
    Width : 720 pixels
    Height : 304 pixels
    Display aspect ratio : 2.35:1
    Frame rate : 23.976 fps
    Color space : YUV
    Chroma subsampling : 4:2:0
    Bit depth : 8 bits
    Scan type : Progressive
    Compression mode : Lossy
    Bits/(Pixel*Frame) : 0.306
    Stream size : 1.10 GiB (85%)
    Writing library : XviD 66

    Audio
    ID : 1
    Format : MPEG Audio
    Format version : Version 1
    Format profile : Layer 3
    Codec ID : 55
    Codec ID/Hint : MP3
    Duration : 1h 37mn
    Bit rate mode : Constant
    Bit rate : 192 Kbps
    Channel(s) : 2 channels
    Sampling rate : 44.1 KHz
    Compression mode : Lossy
    Stream size : 134 MiB (10%)
    Alignment : Split accross interleaves
    Скриншоты:


    © Оформление by Ворон
    piratbit.org



  • Скачать Z – значит Захария через торрент https://pic1.kartinco.top/images/61/ordi9.jpg Скачать, смотреть онлайн Z – значит Захария бесплантно в хорошем качестве Описание: В разрушенном ядерной войной мире чудом смогла выжить 16-летняя Энн. Она встречает взрослого ученого по имени Люмис, который уже ... 9.1 10 8
    Торрент: Зарегистрирован [2015-09-07 13:22] · скачан: 319 раз
    Статус: T временная
    Размер: 1.29 GB
    Как cкачать? Как скачать Z – значит Захария через торрент | UTorrent

    % Раздел Тема Автор DL S | L
    Фильмы (Blu-ray, BD-Remux, HDDVD) [ 30.67 GB ] Z – значит Захария / Z for Zachariah [2015 BDRemux 1080p от NovaLan] VO+DVO Ворон Скачать
    1 | 0
    T Фильмы (WEB-DL 720p, 1080p) [ 3.17 GB ] Z – значит Захария / Z for Zachariah [2015 WEB-DL 720p Любительский [Xixidok] Ворон Скачать
    1 | 0
    Фильмы без перевода [ 3.04 GB ] Z – значит Захария / Z for Zachariah [2015 WEB-DL 720p] [ENG] killermax2013 Скачать
    1 | 0

    28-11-2019 20:33  

    Отключить всю рекламу на сайте

    08-09-2015 17:52 Z – значит Захария Скачать торрент  

    отличный сюжет для порноpiratbit.org



    09-09-2015 10:39 Z – значит Захария Скачать торрент  

    Bogart писал(а):

    отличный сюжет для порно

    :rofle: :rofle: :rofle: :rofle: :rofle: :rofle: :rofle: :rofle: :rofle: :rofle:piratbit.org



    10-09-2015 02:35 Z – значит Захария Скачать торрент  

    вот вам и анал карнавал. :film: yes wink :rofle:piratbit.org



      Дорогой пользователь! Огромная просьба, поблагодарите релизера, оцените раздачу и оставьте свои комментарий, если Вы скачали Z – значит Захария через торрент бесплатно!
      Комментировать посты могут только пользователи прошедшие не сложную регистрацию
      Показать сообщения:    

      Z – значит Захария через торрент
      Скачать бесплатно Z – значит Захария
      Z – значит Захария скачать торрент
      Z – значит Захария смотреть онлайн
      Cкачать фильм Z – значит Захария бесплатно
      Z – значит Захария скачать торрент в хорошем качестве
      Z – значит Захария смотреть онлайн бесплатно в хорошем качестве


      Вы не можете начинать темы
      Вы не можете отвечать на сообщения
      Вы не можете редактировать свои сообщения
      Вы не можете удалять свои сообщения
      Вы не можете голосовать в опросах
      Вы не можете прикреплять файлы к сообщениям
      Вы можете скачивать файлы