2 сезон

iTunes

WEBRip

1

2 сезон

iTunes

1 сезон

1 сезон

RePack

30

Новинка

ВАЖНО

ИГРА 18+

pack

RePack

MK11
pack

Легкие деньги

RePack

jed

RePack

fifa19

RePack

RDR2

RePack

NEED FOR SPEED™ PAYBACK

4 сезон

9 сезон

Бесстыжие 9 сезон

Все сериалы

все сериалы на PB.wtf

RePack

FAR CRY 5

Anonymous, доброй ночи, мы не успеваем собрать деньги на оплату серверов за февраль, помогите нам пожалуйста в это трудное время. В качестве благодарности мы отключим Вам всю рекламу на сайте (укажите свой ник в строку Ваше имя)!

×
  
Magnet ссылка

Век Адалин / Вік Аделайн / The Age of Adaline (Ли Толанд Кригер) [2015, драма, мелодрама, BDRip-AVC] [Ukr DUB] piratbit.org

Век Адалин через торрент piratbit.org

Размер: 1.45 GB | Добавлен: 5 лет 2 мес. назад | Торрент скачан:24 раза
Скачать  

08-09-2015 10:23 Век Адалин Скачать торрент  

Век Адалин / Вік Аделайн / The Age of Adalineслоган «The world has changed in the last century. Adaline has not»
Год выпуска: 2015
Страна: США
Жанр: драма, мелодрама
Продолжительность: 01:52:43
Перевод: Украинский (дублированный)
субтитры: нет

Режиссер: Ли Толанд Кригер

В ролях: Блейк Лайвли, Михил Хаушман, Кэти Бейкер, Харрисон Форд, Эллен Бёрстин, Аманда Крю, Линда Бойд, Хью Росс, Ричард Хэрмон, Фульвио Чечере


По сюжету главная героиня родилась вместе с XX веком и живет на свете уже сто лет, но при этом не стареет. Несмотря на свою долгую жизнь, Аделайн так и не смогла найти любимого человека. Однако наконец-то она встречает мужчину, ради которого сможет снова стать смертной и состариться вместе с ним.

Релиз --

Качество: BDRip-AVC
Формат видео: MKV
Видео кодек: AVC
Аудио кодек: AC3
Видео: V_MPEG4/ISO/AVC, 1024x576 , 23.976 fps, ~1646 kbps avg, 0.126 bit/pixel
Аудио: 48 kHz, AC3 Dolby Digital, 2/0 (L,R) ch, ~192.00 kbps avg
General
Unique ID : 254229335879074382491691824822042680634 (0xBF42CA00909A2A098E3AB803BE32DD3A)
Complete name : E:\INTERNET\The Age of Adaline (2015) BDRip-AVC [Hurtom].mkv
Format : Matroska
Format version : Version 4 / Version 2
File size : 1.45 GiB
Duration : 1h 52mn
Overall bit rate : 1 839 Kbps
Encoded date : UTC 2015-12-24 08:34:34
Writing application : mkvmerge v7.7.0 ('Six Voices') 32bit built on Feb 28 2015 23:23:00
Writing library : libebml v1.3.1 + libmatroska v1.4.2
Attachements : poster.jpg

Video
ID : 1
Format : AVC
Format/Info : Advanced Video Codec
Format profile : Main@L4.1
Format settings, CABAC : Yes
Format settings, ReFrames : 8 frames
Codec ID : V_MPEG4/ISO/AVC
Duration : 1h 52mn
Bit rate : 1 646 Kbps
Width : 1 024 pixels
Height : 576 pixels
Display aspect ratio : 16:9
Frame rate mode : Constant
Frame rate : 23.976 fps
Color space : YUV
Chroma subsampling : 4:2:0
Bit depth : 8 bits
Scan type : Progressive
Bits/(Pixel*Frame) : 0.126
Stream size : 1.27 GiB (88%)
Writing library : x264 core 142 r2479 dd79a61
Encoding settings : cabac=1 / ref=8 / deblock=1:-1:-1 / analyse=0x1:0x131 / me=umh / subme=9 / psy=1 / psy_rd=1.00:0.15 / mixed_ref=1 / me_range=16 / chroma_me=1 / trellis=2 / 8x8dct=0 / cqm=0 / deadzone=21,11 / fast_pskip=1 / chroma_qp_offset=-3 / threads=12 / lookahead_threads=1 / sliced_threads=0 / nr=0 / decimate=1 / interlaced=0 / bluray_compat=0 / constrained_intra=0 / bframes=3 / b_pyramid=2 / b_adapt=2 / b_bias=0 / direct=3 / weightb=1 / open_gop=0 / weightp=2 / keyint=240 / keyint_min=24 / scenecut=40 / intra_refresh=0 / rc_lookahead=60 / rc=2pass / mbtree=1 / bitrate=1646 / ratetol=1.0 / qcomp=0.60 / qpmin=0 / qpmax=69 / qpstep=4 / cplxblur=20.0 / qblur=0.5 / vbv_maxrate=50000 / vbv_bufsize=62500 / nal_hrd=none / filler=0 / ip_ratio=1.40 / aq=1:1.00
Default : Yes
Forced : No
Color range : Limited
Color primaries : BT.709
Transfer characteristics : BT.709
Matrix coefficients : BT.709

Audio
ID : 2
Format : AC-3
Format/Info : Audio Coding 3
Mode extension : CM (complete main)
Format settings, Endianness : Big
Codec ID : A_AC3
Duration : 1h 52mn
Bit rate mode : Constant
Bit rate : 192 Kbps
Channel(s) : 2 channels
Channel positions : Front: L R
Sampling rate : 48.0 KHz
Compression mode : Lossy
Delay relative to video : -83ms
Stream size : 155 MiB (10%)
Language : Ukrainian
Default : Yes
Forced : No[/code]

Цитата:

Фильм дублирован студией Tretyakoff production

piratbit.org



Скачать Век Адалин через торрент http://i69.fastpic.ru/big/2015/0908/ea/410a3443e6a657432e5f2e3d65a427ea.jpg Скачать фильм Век Адалин через торрент бесплантно в хорошем качестве В ролях: Блейк Лайвли, Михил Хаушман, Кэти Бейкер, Харрисон Форд, Эллен Бёрстин, Аманда Крю, Линда Бойд, Хью Росс, Ричард Хэрмон, Фульвио ... 8.7 10 7
Info! Золотая раздача, скачанное не засчитывается.
Торрент: Зарегистрирован [2015-12-25 21:11] · скачан: 24 раз
Статус: √ проверено
Размер: 1.45 GB
Как cкачать? Как скачать Век Адалин через торрент | UTorrent



Последний раз редактировалось: killermax2013 (2015-12-25 21:28), всего редактировалось 3 раз(а)

28-11-2019 20:33  

Отключить всю рекламу на сайте

25-12-2015 21:13 Век Адалин Скачать торрент  

Торент перезалит. Улучшено видео, заменен переводpiratbit.org



25-12-2015 21:49 Век Адалин Скачать торрент  

дякуюpiratbit.org



26-12-2015 09:33 Век Адалин Скачать торрент  

paranja писал(а):

дякую

piratbit.org



    Дорогой пользователь! Огромная просьба, поблагодарите релизера, оцените раздачу и оставьте свои комментарий, если Вы скачали Век Адалин через торрент бесплатно! Внесите свою лепту в развитие PiratBit!
    Комментировать посты могут только пользователи прошедшие не сложную регистрацию
    Показать сообщения:    

    Век Адалин через торрент
    Скачать бесплатно Век Адалин
    Век Адалин скачать торрент
    Век Адалин смотреть онлайн
    Cкачать фильм Век Адалин бесплатно
    Век Адалин скачать торрент в хорошем качестве
    Век Адалин смотреть онлайн бесплатно в хорошем качестве


    Вы не можете начинать темы
    Вы не можете отвечать на сообщения
    Вы не можете редактировать свои сообщения
    Вы не можете удалять свои сообщения
    Вы не можете голосовать в опросах
    Вы не можете прикреплять файлы к сообщениям
    Вы можете скачивать файлы