Доктор Стрэндж

Лицензия

Добыча

Дубляж

Дом дракона

1 сезон

Тор

Дубляж

В эфире

Дубляж

Там, где раки поют

MVO

Властелин колец

1 сезон

Ultimate

pack

Рекомендуем

30

Пиратка

ВАЖНО

ВАЖНО

Ghostwire

Пиратка

jed

RePack

nioh2

RePack

RDR2

RePack

NEED FOR SPEED™ PAYBACK

RePack

скачать торрент

Кинопоиск HD

Острые козырьки 6 сезон

6 сезон

FAR CRY 6

RePack

скачать торрент

Лицензия

скачать торрент

MVO

1

1 сезон

скачать торрент

1 сезон

скачать торрент

Лицензия

  

Почти Рождество / All Is Bright (Фил Моррисон) [2013, драма, комедия, BDRip 1080p от NovaLan] VO

Почти Рождество через торрент piratbit.org

Размер: 10.09 GB | Добавлен: 7 лет 2 мес. назад | Торрент скачан:5 раз
Смотреть онлайн | Скачать   

09-09-2015 02:07 Почти Рождество Скачать торрент  

Название: Почти Рождество

Оригинальное название: All Is Bright

Год выпуска: 2013

Страна: США, GreeneStreet Films Inc., Sidney Kimmel Entertainment, Touchy Feely Films

Продолжительность: 01:47:24

Перевод: Любительский одноголосый (Павел Морозов aka PashaUp) - по субтитрам anton1
Жанр: Драма, комедия

Режиссер: Фил Моррисон

В ролях: Пол Джаматти, Пол Радд, Салли Хокинс, Эми Ландекер, Майкл Дрэйер, Колман Доминго, Хэлли Фейффер, Никки М. Джеймс

Описание:

Фильм расскажет о юмористических подвигах пары предприимчивых ребят, которые решают объединить свои усилия для того, чтобы быстро заработать денег на продаже елок в канун Рождества в Нью-Йорке.



Качество: BDRip 1080p
Формат: MKV
Видео кодек: AVC
Аудио кодек: DTS,AC3
Видео: MPEG-4 AVC, 9797 Кбит/с, 1920x800, 23.976 кадр/с
Звук: русский (AC3, 6 ch, 640 Кбит/с) / 48 kHz
Звук: Русский(DTS, 6 ch, 1510 Кбит/с) / 48 kHz
Звук: английский (DTS, 6 ch, 1510 Кбит/с) / 48 kHz

Субтитры: Английские
Полное имя : D:All.Is.Bright.2013.x264.BDRip.1080p.NovaLan.mkv

Формат : Matroska

Версия формата : Version 4 / Version 2

Размер файла : 10,1 Гбайт

Продолжительность : 1 ч. 47 м.

Общий поток : 13,5 Мбит/сек

Название фильма : All Is Bright 2013 - NovaLan

Дата кодирования : UTC 2015-09-08 18:00:35

Программа кодирования : mkvmerge v8.3.0 ('Over the Horizon') 64bit

Библиотека кодирования : libebml v1.3.1 + libmatroska v1.4.2

DURATION : 01:39:43.128000000

NUMBER_OF_FRAMES : 1275

NUMBER_OF_BYTES : 36216

_STATISTICS_WRITING_APP : mkvmerge v8.3.0 ('Over the Horizon') 64bit

_STATISTICS_WRITING_DATE_UTC : 2015-09-08 18:00:35

_STATISTICS_TAGS : BPS DURATION NUMBER_OF_FRAMES NUMBER_OF_BYTES

Видео

Идентификатор : 1

Формат : AVC

Формат/Информация : Advanced Video Codec

Профиль формата : High@L4.1

Параметр CABAC формата : Да

Параметр ReFrames формата : 4 кадра

Идентификатор кодека : V_MPEG4/ISO/AVC

Продолжительность : 1 ч. 47 м.

Битрейт : 9797 Кбит/сек

Ширина : 1920 пикселей

Высота : 800 пикселей

Соотношение сторон : 2,40:1

Частота кадров : 23,976 кадра/сек

Цветовое пространство : YUV

Субдискретизация насыщенности : 4:2:0

Битовая глубина : 8 бит

Тип развёртки : Прогрессивная

Бит/(Пиксели*Кадры) : 0.266

Размер потока : 7,15 Гбайт (71%)

Заголовок : Sergei7721

Библиотека кодирования : x264 core 146 r2538 121396c

Настройки программы : cabac=1 / ref=4 / deblock=1:-1:-1 / analyse=0x3:0x113 / me=umh / subme=11 / psy=1 / psy_rd=1.00:0.20 / mixed_ref=1 / me_range=24 / chroma_me=1 / trellis=2 / 8x8dct=1 / cqm=0 / deadzone=21,11 / fast_pskip=0 / chroma_qp_offset=-3 / threads=12 / lookahead_threads=1 / sliced_threads=0 / nr=0 / decimate=0 / interlaced=0 / bluray_compat=0 / constrained_intra=0 / bframes=6 / b_pyramid=2 / b_adapt=2 / b_bias=0 / direct=3 / weightb=1 / open_gop=0 / weightp=2 / keyint=240 / keyint_min=23 / scenecut=40 / intra_refresh=0 / rc_lookahead=40 / rc=2pass / mbtree=0 / bitrate=9797 / ratetol=1.0 / qcomp=0.60 / qpmin=0 / qpmax=69 / qpstep=4 / cplxblur=20.0 / qblur=0.5 / vbv_maxrate=50000 / vbv_bufsize=62500 / nal_hrd=none / filler=0 / ip_ratio=1.40 / pb_ratio=1.30 / aq=1:1.00

Default : Да

Forced : Нет

DURATION : 01:47:24.730000000

NUMBER_OF_FRAMES : 154519

NUMBER_OF_BYTES : 7888275796

_STATISTICS_WRITING_APP : mkvmerge v8.3.0 ('Over the Horizon') 64bit

_STATISTICS_WRITING_DATE_UTC : 2015-09-08 18:00:35

_STATISTICS_TAGS : BPS DURATION NUMBER_OF_FRAMES NUMBER_OF_BYTES

Аудио #1

Идентификатор : 2

Формат : AC-3

Формат/Информация : Audio Coding 3

Расширение режима : CM (complete main)

Параметр Endianness формата : Big

Идентификатор кодека : A_AC3

Продолжительность : 1 ч. 47 м.

Вид битрейта : Постоянный

Битрейт : 640 Кбит/сек

Каналы : 6 каналов

Расположение каналов : Front: L C R, Side: L R, LFE

Частота : 48,0 КГц

Битовая глубина : 16 бит

Метод сжатия : С потерями

Размер потока : 492 Мбайт (5%)

Язык : Russian

Default : Да

Forced : Нет

Аудио #2

Идентификатор : 3

Формат : DTS

Формат/Информация : Digital Theater Systems

Идентификатор кодека : A_DTS

Продолжительность : 1 ч. 47 м.

Вид битрейта : Постоянный

Битрейт : 1510 Кбит/сек

Каналы : 6 каналов

Расположение каналов : Front: L C R, Side: L R, LFE

Частота : 48,0 КГц

Битовая глубина : 24 бит

Метод сжатия : С потерями

Размер потока : 1,13 Гбайт (11%)

Язык : Russian

Default : Нет

Forced : Нет

Аудио #3

Идентификатор : 4

Формат : DTS

Формат/Информация : Digital Theater Systems

Идентификатор кодека : A_DTS

Продолжительность : 1 ч. 47 м.

Вид битрейта : Постоянный

Битрейт : 1510 Кбит/сек

Каналы : 6 каналов

Расположение каналов : Front: L C R, Side: L R, LFE

Частота : 48,0 КГц

Битовая глубина : 24 бит

Метод сжатия : С потерями

Размер потока : 1,13 Гбайт (11%)

Язык : English

Default : Нет

Forced : Нет

Текст

Идентификатор : 5

Формат : UTF-8

Идентификатор кодека : S_TEXT/UTF8

Идентификатор кодека/Информация : UTF-8 Plain Text

Язык : English

Default : Нет

Forced : Нет

Меню

00:00:00.000 : en:00:00:00.000

00:04:08.290 : en:00:04:08.290

00:12:22.825 : en:00:12:22.825

00:18:48.127 : en:00:18:48.127

00:27:04.957 : en:00:27:04.957

00:36:03.912 : en:00:36:03.912

00:41:11.761 : en:00:41:11.761

00:48:11.055 : en:00:48:11.055

00:55:49.054 : en:00:55:49.054

01:01:56.087 : en:01:01:56.087

01:06:58.765 : en:01:06:58.765

01:11:30.995 : en:01:11:30.995

01:16:56.487 : en:01:16:56.487

01:22:51.967 : en:01:22:51.967

01:32:17.407 : en:01:32:17.407

01:43:52.309 : en:01:43:52.309
Релиз группа NovaLan

Автор релиза Sergei7721







Скачать Почти Рождество через торрент http://i67.fastpic.ru/big/2015/0909/98/666af8216e4f0ecf90645683844be698.jpg Скачать, смотреть онлайн Почти Рождество бесплантно в хорошем качестве Описание: Фильм расскажет о юмористических подвигах пары предприимчивых ребят, которые решают объединить свои усилия для того, чтобы ... 10 10 2
Торрент: Зарегистрирован [2015-09-09 02:07] · скачан: 5 раз
Статус: √ проверено
Размер: 10.09 GB
Как cкачать? Как скачать Почти Рождество через торрент | UTorrent

% Раздел Тема Автор DL S | L
Фильмы с авторской озвучкой [ 1.45 GB ] Почти Рождество / All Is Bright | AVO | BDRip-AVC от potroks potroks Скачать
1 | 0

28-11-2019 20:33  


Отключить вcю реклaмy на сайте, в т.ч. и в плеере онлайн просмотра!

    Дорогой пользователь! Огромная просьба, поблагодарите релизера, оцените раздачу и оставьте свои комментарий, если Вы скачали Почти Рождество через торрент бесплатно!!
    Комментировать посты могут только пользователи прошедшие не сложную регистрацию
    Показать сообщения:    


    Почти Рождество через торрент
    Скачать бесплатно Почти Рождество
    Почти Рождество скачать торрент
    Почти Рождество смотреть онлайн
    Cкачать фильм Почти Рождество бесплатно
    Почти Рождество скачать торрент в хорошем качестве
    Почти Рождество смотреть онлайн бесплатно в хорошем качестве
    Вы не можете начинать темы
    Вы не можете отвечать на сообщения
    Вы не можете редактировать свои сообщения
    Вы не можете удалять свои сообщения
    Вы не можете голосовать в опросах
    Вы не можете прикреплять файлы к сообщениям
    Вы можете скачивать файлы
    Почти Рождество / All Is Bright [2013, драма, комедия, BDRip 1080p от NovaLan] VO смотреть онлайн, скачать торрент picoco.icu