2 сезон

iTunes

WEBRip

1

2 сезон

iTunes

1 сезон

1 сезон

RePack

30

Ultimate

ВАЖНО

ИГРА 18+

pack

RePack

MK11
pack

Легкие деньги

RePack

jed

RePack

fifa19

RePack

RDR2

RePack

NEED FOR SPEED™ PAYBACK

4 сезон

9 сезон

Бесстыжие 9 сезон

Все сериалы

все сериалы на PB.wtf

RePack

FAR CRY 5

Anonymous, добрый вечер, мы не успеваем собрать деньги на оплату серверов за февраль, помогите нам пожалуйста в это трудное время. В качестве благодарности мы отключим Вам всю рекламу на сайте (укажите свой ник в строку Ваше имя)!

×
  
Magnet ссылка

Світ Юрського періоду / Мир Юрского периода (Колин Треворроу) [2015, фантастика, приключения, боевик, WEB-DLRip, Дубляж - [Украинский]|Line| piratbit.org

Світ Юрського періоду через торрент piratbit.org

Размер: 1.88 GB | Добавлен: 5 лет 5 мес. назад | Торрент скачан:4 раза
Скачать  

10-09-2015 21:28 Світ Юрського періоду Скачать торрент  


Світ Юрського періоду / Мир Юрского периода / Jurassic World
««Парк откроется»»

ИНФОРМАЦИЯ:
Год выпуска:2015
Страна: США, Китай
Жанр: фантастика, приключения, боевик
Продолжительность: 02:04:21
Перевод: Дубляж - [Украинский]|Line|
Режиссер: Колин Треворроу

В Ролях:


Крис Пратт (Owen), Брайс Даллас Ховард (Claire), Ник Дж. Робинсон (Zach), Тай Симпкинс (Gray), Винсент Д’Онофрио (Hoskins), Ирфан Кхан (Masrani), Омар Си (Barry), Б.Д. Вонг (Dr. Henry Wu), Джейк Джонсон (Lowery), Джуди Грир (Karen), Кэти МакГрат (Zara), Лорен Лапкус (Vivian)

Описание:
Тысячи людей спешат увидеть Мир Юрского периода, но безопасное на первый взгляд развлечение может обернуться угрозой для их жизней...

  • Мировая премьера:29 мая 2015

    ТЕХ.ДАННЫЕ:
    Качество: WEB-DLRip
    Формат: AVI
    Видео кодек: XviD
    Аудио кодек: AC3
    Видео: XviD, 720x352 (2.045), 1968 kbps, 23,976 fps, 0,324 bpp
    Аудио: AC3 / 2.0 / 48 kHz / 192 kbps / 16 bit


    General
    Complete name : D:\Торенты\Jurassic.World.2015.WEB-DLRip.Ukr..avi
    Format : AVI
    Format/Info : Audio Video Interleave
    File size : 1.88 GiB
    Duration : 2h 4mn
    Overall bit rate : 2 170 Kbps
    Writing application : VirtualDubMod 1.5.10.3 (build 2550/release)
    Writing library : VirtualDubMod build 2550/release

    Video
    ID : 0
    Format : MPEG-4 Visual
    Format profile : Advanced Simple@L5
    Format settings, BVOP : 2
    Format settings, QPel : No
    Format settings, GMC : No warppoints
    Format settings, Matrix : Default (MPEG)
    Codec ID : XVID
    Codec ID/Hint : XviD
    Duration : 2h 4mn
    Bit rate : 1 968 Kbps
    Width : 720 pixels
    Height : 352 pixels
    Display aspect ratio : 2.045
    Frame rate : 23.976 fps
    Color space : YUV
    Chroma subsampling : 4:2:0
    Bit depth : 8 bits
    Scan type : Progressive
    Compression mode : Lossy
    Bits/(Pixel*Frame) : 0.324
    Stream size : 1.71 GiB (91%)
    Writing library : XviD 1.2.1 (UTC 2008-12-04)

    Audio
    ID : 1
    Format : AC-3
    Format/Info : Audio Coding 3
    Mode extension : CM (complete main)
    Codec ID : 2000
    Duration : 2h 4mn
    Bit rate mode : Constant
    Bit rate : 192 Kbps
    Channel(s) : 2 channels
    Channel positions : Front: L R
    Sampling rate : 48.0 KHz
    Bit depth : 16 bits
    Compression mode : Lossy
    Delay relative to video : 5ms
    Stream size : 171 MiB (9%)
    Alignment : Split accross interleaves
    Interleave, duration : 42 ms (1.00 video frame)
    Interleave, preload duration : 500 ms
    Скриншоты:


    © Оформление by Ворон
    piratbit.org



  • Скачать Світ Юрського періоду через торрент https://pic.kartinco.top/images/6/ordi9.jpg Скачать фильм Світ Юрського періоду через торрент бесплантно в хорошем качестве Описание: Тысячи людей спешат увидеть Мир Юрского периода, но безопасное на первый взгляд развлечение может обернуться угрозой для их ... 10 10 5
    Info! Золотая раздача, скачанное не засчитывается.
    Торрент: Зарегистрирован [2015-09-10 21:28] · скачан: 4 раз
    Статус: √ проверено
    Размер: 1.88 GB
    Как cкачать? Как скачать Світ Юрського періоду через торрент | UTorrent

    28-11-2019 20:33  

    Отключить всю рекламу на сайте

      Дорогой пользователь! Огромная просьба, поблагодарите релизера, оцените раздачу и оставьте свои комментарий, если Вы скачали Світ Юрського періоду через торрент бесплатно! Внесите свою лепту в развитие PiratBit!
      Комментировать посты могут только пользователи прошедшие не сложную регистрацию
      Показать сообщения:    

      Світ Юрського періоду через торрент
      Скачать бесплатно Світ Юрського періоду
      Світ Юрського періоду скачать торрент
      Світ Юрського періоду смотреть онлайн
      Cкачать фильм Світ Юрського періоду бесплатно
      Світ Юрського періоду скачать торрент в хорошем качестве
      Світ Юрського періоду смотреть онлайн бесплатно в хорошем качестве


      Вы не можете начинать темы
      Вы не можете отвечать на сообщения
      Вы не можете редактировать свои сообщения
      Вы не можете удалять свои сообщения
      Вы не можете голосовать в опросах
      Вы не можете прикреплять файлы к сообщениям
      Вы можете скачивать файлы