Ссылка на приватное зеркало нашего сайта всего за 1$. Внимание количество ограничено!!!

2 сезон

iTunes

iTunes

1

iTunes

iTunes

iTunes

WEBRip

iTunes

30
pack

Вам бонус

ВАЖНО

!!Акция!!

Alien_RageХит недели

RePack

Horizon Zero Dawn

ИГРА 18+

pack

RePack

jed

!!Акция!!

Alien_Rage

RePack

fifa19

RePack

Assassins Creed: Odyssey

RePack

NEED FOR SPEED™ PAYBACK

4 сезон

9 сезон

Бесстыжие 9 сезон

Все сериалы

все сериалы на PB.wtf

RePack

FAR CRY 5
  

Три обезьяны / Üç maymun (Нури Бильге Джейлан) [2008 г., драма, HDRip, Профессиональный двухголосый] - НТВ+ piratbit.org

Три обезьяны через торрент piratbit.org

Размер: 1.79 GB | Добавлен: 5 лет назад | Торрент скачан:34 раза
Скачать  

11-10-2014 21:16 Три обезьяны Скачать торрент  

Три обезьяны / Üç maymun

Год выпуска: 2008
Страна: Турция, Франция, Италия
Жанр: драма
Продолжительность: 01:48:50
Перевод: Профессиональный двухголосый - НТВ+
Субтитры: русские, английские, французские

Режиссер: Нури Бильге Джейлан
Продюссер: Нури Бильге Джейлан, Валерио Де Паолис, Кемаль Нойян
Сценарий: Эбру Джейлан, Эрсан Кесал, Нури Бильге Джейлан
Бюджет: $41 343
Премьера в мире: 16 мая 2008

IMDB 7.40 (10 959)


В ролях: Явуз Бинголь, Хатис Аслан, Рифат Сунгкар, Эрсан Кесал, Кафер Кёсе, Гюркан Айдин

Описание: Существует японская притча о трех обезьянах. Одна из них закрывает лапками свои глаза, другая — уши, а третья закрывает свой рот. Своим жестом первая обезьянка говорит: «Я не вижу зло и глупость». Вторая говорит: «Я не слышу зло и глупость». Третья: «Я не разговариваю со злом и глупостью».После того как мелкие секреты переросли в искусную ложь, семья оказывается на грани распада, несмотря на попытки ее членов остаться вместе, скрывая правду. Чтобы избежать осложнений и обязательств, которые будет невыносимо вытерпеть, члены семьи предпочитают игнорировать истину, не видеть, не слышать и не говорить о ней. Но смогут ли они, ведя себя подобно трем обезьянам, отвергнуть правду своего существования?

Качество: HDRip
Формат: AVI
Видео кодек: XviD
Аудио кодек: AC3
Видео: 720x320 (2.25:1), 24 fps, XviD build 73 ~1459 kbps avg, 0.26 bit/pixel
Аудио#1: 48 kHz, AC3 Dolby Digital, 3/2 (L,C,R,l,r) + LFE ch, ~448 kbps - НТВ+
Аудио#2: 48 kHz, AC3 Dolby Digital, 3/2 (L,C,R,l,r) + LFE ch, ~448 kbps - оригинал (отдельным файлом)

General
Complete name : /home/sb753/files/Three.monkeys.2008.hdrip_[1.46]_[teko]/Three.monkeys.2008.hdrip_[1.46].avi
Format : AVI
Format/Info : Audio Video Interleave
File size : 1.45 GiB
Duration : 1h 48mn
Overall bit rate : 1 907 Kbps
Writing application : VirtualDubMod 1.5.10.3 | www.virtualdub-fr.org || (build 2550/release)
Writing library : VirtualDubMod build 2550/release

Video
ID : 0
Format : MPEG-4 Visual
Format profile : Advanced Simple@L5
Format settings, BVOP : 1
Format settings, QPel : No
Format settings, GMC : No warppoints
Format settings, Matrix : Custom
Codec ID : XVID
Codec ID/Hint : XviD
Duration : 1h 48mn
Bit rate : 1 460 Kbps
Width : 720 pixels
Height : 320 pixels
Display aspect ratio : 2.25:1
Frame rate : 24.000 fps
Color space : YUV
Chroma subsampling : 4:2:0
Bit depth : 8 bits
Scan type : Progressive
Compression mode : Lossy
Bits/(Pixel*Frame) : 0.264
Stream size : 1.11 GiB (77%)
Writing library : XviD 73

Audio
ID : 1
Format : AC-3
Format/Info : Audio Coding 3
Mode extension : CM (complete main)
Format settings, Endianness : Big
Codec ID : 2000
Duration : 1h 46mn
Bit rate mode : Constant
Bit rate : 448 Kbps
Channel(s) : 6 channels
Channel positions : Front: L C R, Side: L R, LFE
Sampling rate : 48.0 KHz
Bit depth : 16 bits
Compression mode : Lossy
Stream size : 341 MiB (23%)
Alignment : Split accross interleaves
Interleave, duration : 43 ms (1.02 video frame)
Interleave, preload duration : 500 ms

piratbit.org



Скачать Три обезьяны через торрент http://i67.fastpic.ru/big/2014/1012/7a/65ff3e10a9ebd2d0e1e28891073ba17a.png Скачать фильм Три обезьяны через торрент бесплантно в хорошем качестве Описание: Существует японская притча о трех обезьянах. Одна из них закрывает лапками свои глаза, другая — уши, а третья закрывает свой рот. ... 10 10 4
Торрент: Зарегистрирован [2015-09-18 12:01] · скачан: 34 раз
Статус: √ проверено
Размер: 1.79 GB
Как cкачать? Как скачать Три обезьяны через торрент | qTorrent

28-11-2019 20:33  

Отключить всю рекламу на сайте

    Дорогой пользователь! Огромная просьба, поблагодарите релизера, оцените раздачу и оставьте свои комментарий, если Вы скачали Три обезьяны через торрент бесплатно! Внесите свою лепту в развитие PiratBit!
    Комментировать посты могут только пользователи прошедшие не сложную регистрацию
    Показать сообщения:    

    Три обезьяны через торрент
    Скачать бесплатно Три обезьяны
    Три обезьяны скачать торрент
    Три обезьяны смотреть онлайн
    Cкачать фильм Три обезьяны бесплатно
    Три обезьяны скачать торрент в хорошем качестве
    Три обезьяны смотреть онлайн бесплатно в хорошем качестве


    Вы не можете начинать темы
    Вы не можете отвечать на сообщения
    Вы не можете редактировать свои сообщения
    Вы не можете удалять свои сообщения
    Вы не можете голосовать в опросах
    Вы не можете прикреплять файлы к сообщениям
    Вы можете скачивать файлы