Присоединяйтесь к нам в Telegram!, здесь всегда актуальный адрес сайта, оперативная поддержка и многое другое!!

>

5.9

iTunes

7.4

iTunes

9.4

1 сезон

1

7.4

2 сезон

7.2

iTunes

7.3

iTunes

13

6.1

iTunes

8.3

Пиратка

30

ULTIMATE

pack

9.9

Лицензия

ВАЖНО

ИГРА 18+

pack

7.3

RePack

MK11

7.7

RePack

jed

7.8

RePack

fifa19

8.5

RePack

RDR2

RePack

NEED FOR SPEED™ PAYBACK

5 сезон

9 сезон

Бесстыжие 9 сезон

Все сериалы

все сериалы на PB.wtf

RePack

FAR CRY 5

Anonymous, доброй ночи, мы катастрофически не успеваем собрать деньги на оплату серверов, помогите нам пожалуйста 5,10,15р., для нас важна любая помощь . В качестве благодарности мы отключим Вам всю рекламу на сайте (укажите свой ник в строку Ваше имя)!

×
  
Magnet ссылка

Потревоженный / Яхта-призрак / Alarmed (Matt Lofgren) [2015, ужасы, триллер, HDRip, Любительский двухголосый [den904, DeadSno] piratbit.org

Потревоженный через торрент piratbit.org

Размер: 1.45 GB | Добавлен: 6 лет 2 мес. назад | Торрент скачан:158 раз
Смотреть онлайн Потревоженный | Скачать    Ребята, помогите собрать деньги на оплату серверов!!!

19-09-2015 18:23 Потревоженный Скачать торрент  


Потревоженный / Яхта-призрак / Alarmed


ИНФОРМАЦИЯ:
Год выпуска:2015
Страна: США
Жанр: ужасы, триллер
Продолжительность: 01:29:56
Перевод: Любительский двухголосый [den904, DeadSno]
Режиссер: Matt Lofgren

В Ролях:


Jennifer Stuckert (Samantha), Olivia Aaron (Youngest Sister), Heidi Brigman (Mom), Griffin Daley (Sully), Бейли Хопкинс (Sister), Сара Кларен (Pilar), Erin Meadows (Therapist), Мелисса Квин (Linda), Брайан Райф (Mark), Джоэль Рот (Dad / Dr. Jenkins), Dann Shively (News Reporter, озвучка), Росс Тернер (Dr. Ben)

Описание:
Через пять лет после жестокого убийства своей семьи Саманта решает совершить со своими друзьями морскую прогулку на яхте погибшего отца. Но оказалось, что кто-кто помнит еще эту жуткую историю. Морская прогулка превращается в настоящий кошмар.

  • Мировая премьера:6 мая 2015

    ТЕХ.ДАННЫЕ:
    Качество: HDRip
    Формат: AVI
    Видео: XviD, 720x400 (16:9), 1760 kbps, 23,976 fps, 0,255 bpp
    Аудио: AC3 / 5.1 / 48 kHz / 448 kbps / 16 bit


    General
    Complete name : D:\Торенты\Jahta.prizrak.2014.L2.HDRip.avi
    Format : AVI
    Format/Info : Audio Video Interleave
    File size : 1.45 GiB
    Duration : 1h 29mn
    Overall bit rate : 2 309 Kbps
    Writing application : VirtualDubMod 1.5.10.3 | www.virtualdub-fr.org || (build 2550/release)
    Writing library : VirtualDubMod build 2550/release

    Video
    ID : 0
    Format : MPEG-4 Visual
    Format profile : Advanced Simple@L5
    Format settings, BVOP : 1
    Format settings, QPel : No
    Format settings, GMC : No warppoints
    Format settings, Matrix : Custom
    Codec ID : XVID
    Codec ID/Hint : XviD
    Duration : 1h 29mn
    Bit rate : 1 760 Kbps
    Width : 720 pixels
    Height : 400 pixels
    Display aspect ratio : 16:9
    Frame rate : 23.976 fps
    Color space : YUV
    Chroma subsampling : 4:2:0
    Bit depth : 8 bits
    Scan type : Progressive
    Compression mode : Lossy
    Bits/(Pixel*Frame) : 0.255
    Stream size : 1.11 GiB (76%)
    Writing library : XviD 73

    Audio
    ID : 1
    Format : AC-3
    Format/Info : Audio Coding 3
    Mode extension : CM (complete main)
    Codec ID : 2000
    Duration : 1h 29mn
    Bit rate mode : Constant
    Bit rate : 448 Kbps
    Channel(s) : 6 channels
    Channel positions : Front: L C R, Side: L R, LFE
    Sampling rate : 48.0 KHz
    Bit depth : 16 bits
    Compression mode : Lossy
    Stream size : 288 MiB (19%)
    Alignment : Split accross interleaves
    Скриншоты:


    © Оформление by Ворон
    piratbit.org



  • Скачать Потревоженный через торрент https://pic1.kartinco.top/images/61/ordi9.jpg Скачать, смотреть онлайн Потревоженный бесплантно в хорошем качестве Описание: Через пять лет после жестокого убийства своей семьи Саманта решает совершить со своими друзьями морскую прогулку на яхте ... 9.9 10 9
    Торрент: Зарегистрирован [2015-09-19 18:23] · скачан: 158 раз
    Статус: T временная
    Размер: 1.45 GB
    Как cкачать? Как скачать Потревоженный через торрент | UTorrent

    28-11-2019 20:33  

    Отключить всю рекламу на сайте

    19-09-2015 19:53 Потревоженный Скачать торрент  

    Я вас прошу хоть кто-то застрнелите den904 и DeadSnopiratbit.org



    19-09-2015 20:27 Потревоженный Скачать торрент  

    nospamws писал(а):

    Я вас прошу хоть кто-то застрнелите den904 и DeadSno

    Хоть кто-нибудь - не справится, на тебя Господь, уповаю -
    научи nospamws русскому и отсыпь мозгов.... piratbit.org



    19-09-2015 22:12 Потревоженный Скачать торрент  

    nospamws писал(а):

    Я вас прошу хоть кто-то застрнелите den904 и DeadSno

    Ну, сам попробуй озвучь. Гляди и тебя кто-нибудь застрельнуть захочет.piratbit.org



    20-09-2015 03:54 Потревоженный Скачать торрент  

    nospamws, Благодаря этим переводчикам любителям многие узнали о фильмах которых у нас никогда не показывали и не крутили. Поэтому не надо так писать грубо. Если Вам не нравиться переводчики качайте и смотре от тех которые вам нравятся, у вас всегда есть право выбора.piratbit.org



    21-09-2015 13:01 Потревоженный Скачать торрент  

    Зря бочку катите на людей, если бы не они, все бы смотрели только семейные политкорректные американские комедии и комиксы. И читать они научились не хуже т.н. "профессионального закадрового". Молодцы, одним словом!piratbit.org



    21-09-2015 15:06 Потревоженный Скачать торрент  

    Посмотрел, честно говоря, думал концовка будет хоть немного интересная.. Такое ощущение, что сюжет написан пьяными бездарями. Фильм не рекомендую совершенно.piratbit.org



      Дорогой пользователь! Огромная просьба, поблагодарите релизера, оцените раздачу и оставьте свои комментарий, если Вы скачали Потревоженный через торрент бесплатно!
      Комментировать посты могут только пользователи прошедшие не сложную регистрацию
      Показать сообщения:    

      Потревоженный через торрент
      Скачать бесплатно Потревоженный
      Потревоженный скачать торрент
      Потревоженный смотреть онлайн
      Cкачать фильм Потревоженный бесплатно
      Потревоженный скачать торрент в хорошем качестве
      Потревоженный смотреть онлайн бесплатно в хорошем качестве


      Вы не можете начинать темы
      Вы не можете отвечать на сообщения
      Вы не можете редактировать свои сообщения
      Вы не можете удалять свои сообщения
      Вы не можете голосовать в опросах
      Вы не можете прикреплять файлы к сообщениям
      Вы можете скачивать файлы