Ссылка на приватное зеркало нашего сайта всего за 1$. Внимание количество ограничено!!!

2 сезон

iTunes

iTunes

1

iTunes

iTunes

iTunes

WEBRip

iTunes

30
pack

Вам бонус

ВАЖНО

!!Акция!!

Alien_RageХит недели

RePack

Horizon Zero Dawn

ИГРА 18+

pack

RePack

jed

!!Акция!!

Alien_Rage

RePack

fifa19

RePack

Assassins Creed: Odyssey

RePack

NEED FOR SPEED™ PAYBACK

4 сезон

9 сезон

Бесстыжие 9 сезон

Все сериалы

все сериалы на PB.wtf

RePack

FAR CRY 5
  

Короли улиц / Street Kings (Дэвид Эйр) [2008 г., боевик, триллер, драма, HDRip by Dean24] (Дубляж, Лицензия) piratbit.org

Короли улиц через торрент piratbit.org

Размер: 1.47 GB | Добавлен: 5 лет назад | Торрент скачан:162 раза
Скачать  

20-09-2015 10:39 Короли улиц Скачать торрент  

Короли улиц / Street KingsГод выпуска: 2008
Страна: США
Жанр: боевик, триллер, драма
Продолжительность: 01:48:48
Перевод: Дубляж | Лицензия
Субтитры: Нет

Режиссер: Дэвид Эйр
Продюссер: Лукас Фостер, Александра Милчэн, Эрвин Стофф
Сценарий: Джеймс Эллрой, Курт Уиммер, Джейми Мосс

Бюджет: $20 000 000
Премьера в мире: 3 апреля 2008



В ролях: Киану Ривз, Форест Уитакер, Хью Лори, Крис Эванс, Седрик «Развлекатель», Наоми Харрис, Терри Крюс, Джей Мор, Амори Ноласко, Джон Корбетт

Описание: Полицейский из Лос-Анджелеса ни разу в жизни не задумывался над тем, что его может ожидать за гранью собственного уютного мира. Однако со смертью любимой жены в его жизнь входит темная, беспощадная, отчаянная пустота. Ладлоу вынужден действовать, когда его же собственные друзья-соратники обвиняют его в убийстве. Так начинается борьба человека за свое место в мире, который все больше и больше контролируется внешними силами.

Качество: HDRip | BDRip 720p
Формат: AVI
Видео кодек: XviD
Аудио кодек: AC3
Видео: 720x304 (2.37:1), 23.976 fps, XviD build 50 ~1534 kbps avg, 0.29 bit/pixel
Аудио: 48 kHz, AC3 Dolby Digital, 3/2 (L,C,R,l,r) + LFE ch, ~384 kbps



Автор рипа: Dean24
|
Общее
Полное имя : D:\Мои документы\Фильмы\Сайт\Street.Kings.HDRip.avi
Формат : AVI
Формат/Информация : Audio Video Interleave
Размер файла : 1,47 Гбайт
Продолжительность : 1 ч. 48 м.
Общий поток : 1928 Кбит/сек
Программа кодирования : VirtualDubMod 1.5.10.3 | www.virtualdub-fr.org || (build 2550/release)
Библиотека кодирования : VirtualDubMod build 2550/release

Видео
Идентификатор : 0
Формат : MPEG-4 Visual
Профиль формата : Advanced Simple@L5
Параметр BVOP формата : 3
Параметр QPel формата : Нет
Параметр GMC формата : Без точки перехода
Параметр матрицы формата : Default (H.263)
Идентификатор кодека : XVID
Идентификатор кодека/Подсказка : XviD
Продолжительность : 1 ч. 48 м.
Битрейт : 1535 Кбит/сек
Ширина : 720 пикселей
Высота : 304 пикселя
Соотношение сторон : 2,35:1
Частота кадров : 23,976 кадра/сек
Цветовое пространство : YUV
Субдискретизация насыщенности : 4:2:0
Битовая глубина : 8 бит
Тип развёртки : Прогрессивная
Метод сжатия : С потерями
Бит/(Пиксели*Кадры) : 0.292
Размер потока : 1,17 Гбайт (80%)
Библиотека кодирования : XviD 1.2.1 (UTC 2008-12-04)

Аудио
Идентификатор : 1
Формат : AC-3
Формат/Информация : Audio Coding 3
Расширение режима : CM (complete main)
Параметр Endianness формата : Big
Идентификатор кодека : 2000
Продолжительность : 1 ч. 48 м.
Вид битрейта : Постоянный
Битрейт : 384 Кбит/сек
Каналы : 6 каналов
Расположение каналов : Front: L C R, Side: L R, LFE
Частота : 48,0 КГц
Битовая глубина : 16 бит
Метод сжатия : С потерями
Размер потока : 299 Мбайт (20%)
Выравнивание : Разделение по промежуткам
Продолжительность промежутка : 42 мс. (1,00 видеокадр)
Время предзагрузки промежутка : 500 мс.

piratbit.org



Скачать Короли улиц через торрент http://i67.fastpic.ru/big/2015/0920/b5/112e2bae8ab986384482c76484be83b5.jpg Скачать фильм Короли улиц через торрент бесплантно в хорошем качестве Описание: Полицейский из Лос-Анджелеса ни разу в жизни не задумывался над тем, что его может ожидать за гранью собственного уютного мира. ... 10 10 12
Info! Золотая раздача, скачанное не засчитывается.
Торрент: Зарегистрирован [2015-09-20 10:39] · скачан: 162 раз
Статус: √ проверено
Размер: 1.47 GB
Как cкачать? Как скачать Короли улиц через торрент | qTorrent

% Раздел Тема Автор DL S | L
Фильмы [HD 720p, 1080p] (Хороший звук DUB, MVO) [ 7.76 GB ] Короли улиц 2 / Street Kings 2: Motor City [2011 BDRip 1080p от _denis_100] MVO _denis_100 Скачать
1 | 0
Фильмы 2006-2008 [ 2.22 GB ] Короли улиц / Street Kings [2008 BDRip ] DUB chack Скачать
1 | 0
Фильмы [HD 720p, 1080p] (Хороший звук DUB, MVO) [ 6.81 GB ] Короли улиц 2 / Street Kings 2: Motor City [2011 BDRip 1080р] smaster Скачать
1 | 0
Фильмы 2011 [ 1.37 GB ] Короли улиц 2 / Street Kings: Motor City [2011 HDRip лицензия] SD Скачать
2 | 0
Фильмы 2011 [ 1.7 GB ] Короли улиц 2 / Street Kings: Motor City [2011 BDRip-AVC лицензия] Hotab 123 Скачать
1 | 0
Фильмы (DVD фильмы) [ 6.71 GB ] Короли улиц 2 / Street Kings 2: Motor City [2011 DVD9] R2 «Двадцатый Век Фокс СНГ» voovaz Скачать
1 | 0
Фильмы 2006-2008 [ 2.1 GB ] Короли улиц / Street Kings [2008 HDRip] feldeger Скачать
1 | 0


Последний раз редактировалось: Dean24 (2015-09-20 13:28), всего редактировалось 1 раз

28-11-2019 20:33  

Отключить всю рекламу на сайте

20-09-2015 10:39 Короли улиц Скачать торрент  

Раздаю 2 релиза сразу, так что от комментариев о скорости попрошу воздержаться. Позже залью "Патруль" этого же режиссераpiratbit.org



20-09-2015 11:37 Короли улиц Скачать торрент  

один из любимых фильмов смотрел раз 10 наверно,
"бабы так не торкают и бабок не жалко"piratbit.org



21-09-2015 20:33 Короли улиц Скачать торрент  

Классный фильм, советую всем кто не смотрелpiratbit.org



    Дорогой пользователь! Огромная просьба, поблагодарите релизера, оцените раздачу и оставьте свои комментарий, если Вы скачали Короли улиц через торрент бесплатно! Внесите свою лепту в развитие PiratBit!
    Комментировать посты могут только пользователи прошедшие не сложную регистрацию
    Показать сообщения:    

    Короли улиц через торрент
    Скачать бесплатно Короли улиц
    Короли улиц скачать торрент
    Короли улиц смотреть онлайн
    Cкачать фильм Короли улиц бесплатно
    Короли улиц скачать торрент в хорошем качестве
    Короли улиц смотреть онлайн бесплатно в хорошем качестве


    Вы не можете начинать темы
    Вы не можете отвечать на сообщения
    Вы не можете редактировать свои сообщения
    Вы не можете удалять свои сообщения
    Вы не можете голосовать в опросах
    Вы не можете прикреплять файлы к сообщениям
    Вы можете скачивать файлы