Доктор Стрэндж

Лицензия

Добыча

MVO

Дом дракона

1 сезон

Тор

Лицензия

Мэверик

Лицензия

Там, где раки поют

MVO

Властелин колец

1 сезон

Ultimate

pack

Рекомендуем

30

Repack

ВАЖНО

ВАЖНО

Ghostwire

RePack

jed

RePack

nioh2

RePack

RDR2

RePack

NEED FOR SPEED™ PAYBACK

RePack

скачать торрент

Кинопоиск HD

Острые козырьки 6 сезон

6 сезон

FAR CRY 6

RePack

скачать торрент

Лицензия

скачать торрент

MVO

1

1 сезон

скачать торрент

1 сезон

скачать торрент

Лицензия

  

Братушка / Bratyuzhka (Игорь Добролюбов) [1975, СССР, Болгария, драма, военный, SATRip от AVP Studio]

Братушка через торрент piratbit.org

Размер: 747 MB | Добавлен: 7 лет назад | Торрент скачан:9 раз
Смотреть онлайн Братушка | Скачать   

23-09-2015 07:51 Братушка Скачать торрент  

Братушка
Bratyuzhka

Страна: СССР, Болгария
Производство: Беларусьфильм, "Бояна"

Жанр: драма, военный
Год выпуска: 1975
Продолжительность: 01:15:58

Перевод: Не требуется
Cубтитры: нет
Оригинальная аудиодорожка: русский

Режиссер: Игорь Добролюбов

В ролях:
Анатолий Кузнецов, Стефан Данаилов, Светлана Тома, Владимир Басов, Никола Тодев, Милка Туйкова, Иван Цветарский, Георгий Бахчеванов, Пенко Пенков, Иван Григоров, Иван Гайдарджиев, Владимир Давчев, Николай Клисуров...
Полный список актёров

Описание:
Фильм повествует об одном из эпизодов освобождения Болгарии советскими солдатами в сентябре 1944 года. У следующей в тыловом обозе конной повозки Алеся Казанка ломается колесо и ему приходится завернуть в ближайшую деревню. Жители деревни давно уже ждут освободителей и устраивают Алесю торжественную встречу. Местные мастера ставят на его телегу новое колесо – красивое, расписное. Казанка просит подвести до города студент Живко, которого сослали сюда прежние власти за подпольную работу. У Алеся уже есть одна пассажирка – румынка Марика, освобожденная советскими бойцами из фашистского плена. Вскоре у троих путешественников появляется еще один попутчик - в плен Казанку сдается немецкий солдат Иоганн. Прежде чем герои фильма доберутся до города, произойдет еще много встреч и событий...

Источник: DVB
Качество видео: SATRip
Формат видео: AVI

Видео: 640x480 (4:3), 25 fps, XviD ~ 1237 kbps avg, 0.161 bit/pixel
Аудио: 48 kHz, MP3 2.0, 128 kbps

Раздача от:
Общее
Полное имя : Bratushka.1975.SATRip-745_[New-team]_by_AVP_Studio.avi
Формат : AVI
Формат/Информация : Audio Video Interleave
Размер файла : 747 Мбайт
Продолжительность : 1 ч. 15 м.
Общий поток : 1374 Кбит/сек
Программа кодирования : VirtualDubMod 1.5.10.3 | www.virtualdub-fr.org || (build 2550/release)
Библиотека кодирования : VirtualDubMod build 2550/release

Видео
Идентификатор : 0
Формат : MPEG-4 Visual
Профиль формата : Advanced Simple@L5
Параметр BVOP формата : 1
Параметр QPel формата : Нет
Параметр GMC формата : Без точки перехода
Параметр матрицы формата : Выборочная
Идентификатор кодека : XVID
Идентификатор кодека/Подсказка : XviD
Продолжительность : 1 ч. 15 м.
Битрейт : 1237 Кбит/сек
Ширина : 640 пикселей
Высота : 480 пикселей
Соотношение сторон : 4:3
Частота кадров : 25,000 кадров/сек
Цветовое пространство : YUV
Субдискретизация насыщенности : 4:2:0
Битовая глубина : 8 бит
Тип развёртки : Прогрессивная
Метод сжатия : С потерями
Бит/(Пиксели*Кадры) : 0.161
Размер потока : 672 Мбайт (90%)
Библиотека кодирования : XviD 73

Аудио
Идентификатор : 1
Формат : MPEG Audio
Версия формата : Version 1
Профиль формата : Layer 3
Идентификатор кодека : 55
Идентификатор кодека/Подсказка : MP3
Продолжительность : 1 ч. 15 м.
Вид битрейта : Постоянный
Битрейт : 128 Кбит/сек
Каналы : 2 канала
Частота : 48,0 КГц
Метод сжатия : С потерями
Размер потока : 69,5 Мбайт (9%)
Выравнивание : Соединение по промежуткам
Продолжительность промежутка : 40 мс. (1,00 видеокадр)
Время предзагрузки промежутка : 504 мс.
Библиотека кодирования : LAME3.99r
Настройки программы : -m s -V 4 -q 2 -lowpass 17 -b 128



Скачать Братушка через торрент http://s005.radikal.ru/i212/1509/3d/f24df0719ec2.png Скачать, смотреть онлайн Братушка бесплантно в хорошем качестве Описание:Фильм повествует об одном из эпизодов освобождения Болгарии советскими солдатами в сентябре 1944 года. У следующей в тыловом обозе ... 10 10 2
Info! Золотая раздача, скачанное не засчитывается.
Торрент: Зарегистрирован [2015-09-23 07:51] · скачан: 9 раз
Статус: √ проверено
Размер: 747 MB
Как cкачать? Как скачать Братушка через торрент | UTorrent

% Раздел Тема Автор DL S | L
Кино СССР [ 1.09 GB ] Братушка / Bratyuzhka | | SATRip-AVC от AVP Studio AVP Studio Скачать
2 | 0
Кино СССР [ 1.07 GB ] Братушка / Bratyuzhka | | SATRip от AVP Studio AVP Studio Скачать
1 | 0

28-11-2019 20:33  

Отключить вcю реклaмy на сайте

    Дорогой пользователь! Огромная просьба, поблагодарите релизера, оцените раздачу и оставьте свои комментарий, если Вы скачали Братушка через торрент бесплатно!!
    Комментировать посты могут только пользователи прошедшие не сложную регистрацию
    Показать сообщения:    


    Братушка через торрент
    Скачать бесплатно Братушка
    Братушка скачать торрент
    Братушка смотреть онлайн
    Cкачать фильм Братушка бесплатно
    Братушка скачать торрент в хорошем качестве
    Братушка смотреть онлайн бесплатно в хорошем качестве
    Вы не можете начинать темы
    Вы не можете отвечать на сообщения
    Вы не можете редактировать свои сообщения
    Вы не можете удалять свои сообщения
    Вы не можете голосовать в опросах
    Вы не можете прикреплять файлы к сообщениям
    Вы можете скачивать файлы