Лицензия

MVO

1

1 сезон

Лицензия

Лицензия

13

MVO

1 сезон

Deluxe Edition

pack

Рекомендуем

30

Repack

ВАЖНО

ВАЖНО

Ghostwire

RePack

jed

RePack

fifa19

RePack

RDR2

RePack

NEED FOR SPEED™ PAYBACK

RePack

Кинопоиск HD

 Острые козырьки 6 сезон

6 сезон

FAR CRY 6

RePack

Лицензия

MVO

1

1 сезон

1 сезон

Лицензия

  

Факт (Альмантас Грикявичюс) [1980, СССР, драма, военный, SATRip-AVC от AVP Studio]

Факт через торрент piratbit.org

Размер: 1.09 GB | Добавлен: 7 лет назад | Торрент скачан:17 раз
Смотреть онлайн Факт | Скачать   

23-09-2015 08:51 Факт Скачать торрент  

Факт
Страна: СССР
Производство: Литовская киностудия

Жанр: драма, военный
Год выпуска: 1980
Продолжительность: 01:24:36

Перевод: Не требуется
Cубтитры: нет
Оригинальная аудиодорожка: русский

Режиссер: Альмантас Грикявичюс

В ролях:
Регимантас Адомайтис, Донатас Банионис, Юозас Будрайтис, Улдис Думпис, Александр Кайдановский, Ирена Мария Леонавичюте (II), Арнис Лицитис, Петерис Лиепиньш, Вайва Майнелите, Альгимантас Масюлис, Лаймонас Норейка, Эугения Плешките, Елена Соловей...
Полный список актёров

Описание:
Фильм, в основе которого исторический факт - 3 июня 1944 года фашисты сожгли заживо всех жителей деревни Пирчюпяй, - предельно точно воссоздает события этого страшного дня.

Источник: DVB
Качество видео: SATRip-AVC
Формат видео: MKV

Видео: 704->768x576 (4:3), 25 fps, H264 ~ 1649 kbps avg, 0.163 bit/pixel
Аудио: 48 kHz, Dolby Digital AC3 2.0, 192 kbps

Раздача от:
Общее
Полное имя : Fakt.1980.SATRip-AVC_[New-team]_by_AVP_Studio.mkv
Формат : Matroska
Версия формата : Version 2
Размер файла : 1,09 Гбайт
Продолжительность : 1 ч. 24 м.
Общий поток : 1843 Кбит/сек
Дата кодирования : UTC 2015-09-21 19:23:56
Программа кодирования : mkvmerge v6.1.0 ('Old Devil') built on Mar 4 2013 09:10:42
Библиотека кодирования : libebml v1.3.0 + libmatroska v1.4.0

Видео
Идентификатор : 1
Формат : AVC
Формат/Информация : Advanced Video Codec
Профиль формата : High@L4.1
Параметр CABAC формата : Да
Параметр ReFrames формата : 8 кадров
Идентификатор кодека : V_MPEG4/ISO/AVC
Продолжительность : 1 ч. 24 м.
Битрейт : 1649 Кбит/сек
Ширина : 704 пикселя
Высота : 576 пикселей
Соотношение сторон : 4:3
Режим частоты кадров : Постоянный
Частота кадров : 25,000 кадров/сек
Стандарт вещания : PAL
Цветовое пространство : YUV
Субдискретизация насыщенности : 4:2:0
Битовая глубина : 8 бит
Тип развёртки : Прогрессивная
Бит/(Пиксели*Кадры) : 0.163
Размер потока : 977 Мбайт (88%)
Библиотека кодирования : x264 core 130 r2273 b3065e6
Настройки программы : cabac=1 / ref=8 / deblock=1:-2:-1 / analyse=0x3:0x113 / me=umh / subme=10 / psy=1 / psy_rd=1.00:0.05 / mixed_ref=1 / me_range=32 / chroma_me=1 / trellis=2 / 8x8dct=1 / cqm=0 / deadzone=21,11 / fast_pskip=0 / chroma_qp_offset=-3 / threads=6 / lookahead_threads=1 / sliced_threads=0 / nr=0 / decimate=0 / interlaced=0 / bluray_compat=0 / constrained_intra=0 / bframes=8 / b_pyramid=2 / b_adapt=2 / b_bias=0 / direct=3 / weightb=1 / open_gop=0 / weightp=2 / keyint=250 / keyint_min=25 / scenecut=40 / intra_refresh=0 / rc=2pass / mbtree=0 / bitrate=1649 / ratetol=1.0 / qcomp=0.60 / qpmin=0 / qpmax=69 / qpstep=4 / cplxblur=20.0 / qblur=0.5 / ip_ratio=1.40 / pb_ratio=1.30 / aq=1:1.00
Default : Да
Forced : Нет

Аудио
Идентификатор : 2
Формат : AC-3
Формат/Информация : Audio Coding 3
Расширение режима : CM (complete main)
Параметр Endianness формата : Big
Идентификатор кодека : A_AC3
Продолжительность : 1 ч. 24 м.
Вид битрейта : Постоянный
Битрейт : 192 Кбит/сек
Каналы : 2 канала
Расположение каналов : Front: L R
Частота : 48,0 КГц
Метод сжатия : С потерями
Размер потока : 116 Мбайт (10%)
Default : Да
Forced : Нет



Скачать Факт через торрент http://s019.radikal.ru/i618/1509/9f/2a84694218d0.png Скачать, смотреть онлайн Факт бесплантно в хорошем качестве Описание:Фильм, в основе которого исторический факт - 3 июня 1944 года фашисты сожгли заживо всех жителей деревни Пирчюпяй, - предельно ... 10 10 3
Info! Золотая раздача, скачанное не засчитывается.
Торрент: Зарегистрирован [2015-09-23 08:51] · скачан: 17 раз
Статус: √ проверено
Размер: 1.09 GB
Как cкачать? Как скачать Факт через торрент | UTorrent

% Раздел Тема Автор DL S | L
Кино СССР [ 745 MB ] Факт | | SATRip от AVP Studio AVP Studio Скачать
1 | 0
Кино СССР [ 1.48 GB ] Факт | | SATRip от AVP Studio AVP Studio Скачать
1 | 0

28-11-2019 20:33  

Отключить вcю реклaмy на сайте

    Дорогой пользователь! Огромная просьба, поблагодарите релизера, оцените раздачу и оставьте свои комментарий, если Вы скачали Факт через торрент бесплатно!!
    Комментировать посты могут только пользователи прошедшие не сложную регистрацию
    Показать сообщения:    


    Факт через торрент
    Скачать бесплатно Факт
    Факт скачать торрент
    Факт смотреть онлайн
    Cкачать фильм Факт бесплатно
    Факт скачать торрент в хорошем качестве
    Факт смотреть онлайн бесплатно в хорошем качестве
    Вы не можете начинать темы
    Вы не можете отвечать на сообщения
    Вы не можете редактировать свои сообщения
    Вы не можете удалять свои сообщения
    Вы не можете голосовать в опросах
    Вы не можете прикреплять файлы к сообщениям
    Вы можете скачивать файлы