Доктор Стрэндж

Лицензия

Добыча

MVO

Дом дракона

1 сезон

Тор

Лицензия

Мэверик

Лицензия

Там, где раки поют

MVO

Властелин колец

1 сезон

Ultimate

pack

Рекомендуем

30

Repack

ВАЖНО

ВАЖНО

Ghostwire

RePack

jed

RePack

nioh2

RePack

RDR2

RePack

NEED FOR SPEED™ PAYBACK

RePack

скачать торрент

Кинопоиск HD

Острые козырьки 6 сезон

6 сезон

FAR CRY 6

RePack

скачать торрент

Лицензия

скачать торрент

MVO

1

1 сезон

скачать торрент

1 сезон

скачать торрент

Лицензия

  

Товарищ генерал (Теодор Вульфович) [1973, СССР, драма, военный, SATRip-AVC от AVP Studio]

Товарищ генерал через торрент piratbit.org

Размер: 744 MB | Добавлен: 7 лет назад | Торрент скачан:48 раз
Смотреть онлайн Товарищ генерал | Скачать   

24-09-2015 08:34 Товарищ генерал Скачать торрент  

Товарищ генерал
Страна: СССР
Производство: Мосфильм

Жанр: драма, военный
Год выпуска: 1973
Продолжительность: 01:24:32

Перевод: Не требуется
Cубтитры: нет
Оригинальная аудиодорожка: русский

Режиссер: Теодор Вульфович

В ролях:
Игорь Ледогоров, Георгий Куликов, Виктор Шульгин, Павел Махотин, Владимир Осенев, Раиса Куркина, Ольга Гобзева, Зинаида Славина, Игорь Класс, Алексей Преснецов, Юрий Волков, Юрий Волынцев, Шавкат Газиев, Виктор Задубровский, Михаил Кислов, Владимир Кашпур, Виктор Павлов, Борис Кордунов, Борис Руднев, Леонид Кулагин, Роберт Лигерс...
Полный список актёров

Описание:
1941 год. Армия командарма Капитонова принимает на себя удар немецких войск, рвущихся к Ростову. Хорошо зная тактику немецкого генерала Лейнца, Капитонов блестяще проводит операцию, вошедшую в историю войны под названием “Дьяковской обороны”.

Источник: DVB
Качество видео: SATRip-AVC
Формат видео: MKV

Видео: 712->770x328 (2,35:1), 25 fps, H264 ~ 1037 kbps avg, 0.178 bit/pixel
Аудио: 48 kHz, Dolby Digital AC3 2.0, 192 kbps

Раздача от:
Общее
Полное имя : Tovarishh.general.1973.SATRip-AVC_[New-team]_by_AVP_Studio.mkv
Формат : Matroska
Версия формата : Version 2
Размер файла : 744 Мбайт
Продолжительность : 1 ч. 24 м.
Общий поток : 1231 Кбит/сек
Дата кодирования : UTC 2015-09-23 17:14:42
Программа кодирования : mkvmerge v6.1.0 ('Old Devil') built on Mar 4 2013 09:10:42
Библиотека кодирования : libebml v1.3.0 + libmatroska v1.4.0

Видео
Идентификатор : 1
Формат : AVC
Формат/Информация : Advanced Video Codec
Профиль формата : High@L4.1
Параметр CABAC формата : Да
Параметр ReFrames формата : 8 кадров
Идентификатор кодека : V_MPEG4/ISO/AVC
Продолжительность : 1 ч. 24 м.
Битрейт : 1037 Кбит/сек
Ширина : 712 пикселей
Высота : 328 пикселей
Соотношение сторон : 2,35:1
Соотношение сторон в оригинале : 2,35:1
Режим частоты кадров : Постоянный
Частота кадров : 25,000 кадров/сек
Цветовое пространство : YUV
Субдискретизация насыщенности : 4:2:0
Битовая глубина : 8 бит
Тип развёртки : Прогрессивная
Бит/(Пиксели*Кадры) : 0.178
Размер потока : 613 Мбайт (82%)
Библиотека кодирования : x264 core 130 r2273 b3065e6
Настройки программы : cabac=1 / ref=8 / deblock=1:-2:-1 / analyse=0x3:0x113 / me=umh / subme=10 / psy=1 / psy_rd=1.00:0.05 / mixed_ref=1 / me_range=32 / chroma_me=1 / trellis=2 / 8x8dct=1 / cqm=0 / deadzone=21,11 / fast_pskip=0 / chroma_qp_offset=-3 / threads=6 / lookahead_threads=1 / sliced_threads=0 / nr=0 / decimate=0 / interlaced=0 / bluray_compat=0 / constrained_intra=0 / bframes=8 / b_pyramid=2 / b_adapt=2 / b_bias=0 / direct=3 / weightb=1 / open_gop=0 / weightp=2 / keyint=250 / keyint_min=25 / scenecut=40 / intra_refresh=0 / rc=2pass / mbtree=0 / bitrate=1037 / ratetol=1.0 / qcomp=0.60 / qpmin=0 / qpmax=69 / qpstep=4 / cplxblur=20.0 / qblur=0.5 / ip_ratio=1.40 / pb_ratio=1.30 / aq=1:1.00
Default : Да
Forced : Нет

Аудио
Идентификатор : 2
Формат : AC-3
Формат/Информация : Audio Coding 3
Расширение режима : CM (complete main)
Параметр Endianness формата : Big
Идентификатор кодека : A_AC3
Продолжительность : 1 ч. 24 м.
Вид битрейта : Постоянный
Битрейт : 192 Кбит/сек
Каналы : 2 канала
Расположение каналов : Front: L R
Частота : 48,0 КГц
Метод сжатия : С потерями
Размер потока : 116 Мбайт (16%)
Default : Да
Forced : Нет



Скачать Товарищ генерал через торрент http://s010.radikal.ru/i312/1509/cd/f5271a451927.png Скачать, смотреть онлайн Товарищ генерал бесплантно в хорошем качестве Описание:1941 год. Армия командарма Капитонова принимает на себя удар немецких войск, рвущихся к Ростову. Хорошо зная тактику немецкого ... 10 10 8
Торрент: Зарегистрирован [2015-09-24 08:34] · скачан: 48 раз
Статус: √ проверено
Размер: 744 MB
Как cкачать? Как скачать Товарищ генерал через торрент | UTorrent

% Раздел Тема Автор DL S | L
Кино СССР [ 744 MB ] Товарищ генерал | | SATRip от AVP Studio AVP Studio Скачать
1 | 0

28-11-2019 20:33  

Отключить вcю реклaмy на сайте

    Дорогой пользователь! Огромная просьба, поблагодарите релизера, оцените раздачу и оставьте свои комментарий, если Вы скачали Товарищ генерал через торрент бесплатно!!
    Комментировать посты могут только пользователи прошедшие не сложную регистрацию
    Показать сообщения:    


    Товарищ генерал через торрент
    Скачать бесплатно Товарищ генерал
    Товарищ генерал скачать торрент
    Товарищ генерал смотреть онлайн
    Cкачать фильм Товарищ генерал бесплатно
    Товарищ генерал скачать торрент в хорошем качестве
    Товарищ генерал смотреть онлайн бесплатно в хорошем качестве
    Вы не можете начинать темы
    Вы не можете отвечать на сообщения
    Вы не можете редактировать свои сообщения
    Вы не можете удалять свои сообщения
    Вы не можете голосовать в опросах
    Вы не можете прикреплять файлы к сообщениям
    Вы можете скачивать файлы