Лицензия

MVO

1

1 сезон

Лицензия

Лицензия

13

MVO

1 сезон

Deluxe Edition

pack

Рекомендуем

30

Repack

ВАЖНО

ВАЖНО

Ghostwire

RePack

jed

RePack

fifa19

RePack

RDR2

RePack

NEED FOR SPEED™ PAYBACK

RePack

Кинопоиск HD

 Острые козырьки 6 сезон

6 сезон

FAR CRY 6

RePack

Лицензия

MVO

1

1 сезон

1 сезон

Лицензия

  

Крепость (Василе Паскару) [1978, СССР, боевик, драма, военный, DVDRip-AVC от AVP Studio]

Крепость через торрент piratbit.org

Размер: 744 MB | Добавлен: 7 лет назад | Торрент скачан:44 раза
Смотреть онлайн Крепость | Скачать   

24-09-2015 08:38 Крепость Скачать торрент  

Крепость
Страна: СССР
Производство: Молдова Фильм, ТО «Арта»

Жанр: боевик, драма, военный
Год выпуска: 1978
Продолжительность: 01:28:40

Перевод: Не требуется
Cубтитры: нет
Оригинальная аудиодорожка: русский

Режиссер: Василе Паскару

В ролях:
Эммануил Виторган, Альгимантас Масюлис, Константин Константинов, Ион Шкуря, Валериу Купча, Паул Буткевич, Улдис Лиелдидж, Петр (Петря) Баракчи, Владимир Мсрян, Арнис Лицитис, Евгений Герасимов, Ирина Азер, Алексей Бойко, Юрий Кузьменко, Владимир Шакало, Д. Япунджян, Михаил Миликов, Серджиу Финити, Игорь Стаценко, Вячеслав Кутаков, Борис Зайденберг, Всеволод Гаврилов...
Полный список актёров

Описание:
Остросюжетный рассказ об операции "Крепость", проведенной советским десантом в последний год второй мировой войны по спасению группы европейских ученых, отказавшихся работать на фашистскую Германию и заключенных в крепость на одном из островов Адриатического моря.
По мотивам документального рассказа С.С.Смирнова "Госпиталь в Еремеевке".

Источник: DVD5 R5
Качество видео: DVDRip-AVC
Формат видео: MKV

Видео: 688->818x348 (2,35:1), 25 fps, H264 ~ 980 kbps avg, 0.164 bit/pixel
Аудио: 48 kHz, Dolby Digital AC3 2.0, 192 kbps

Раздача от:
Общее
Полное имя : Krepost.1978.DVDRip-AVC_[New-team]_by_AVP_Studio.mkv
Формат : Matroska
Версия формата : Version 2
Размер файла : 744 Мбайт
Продолжительность : 1 ч. 28 м.
Общий поток : 1174 Кбит/сек
Дата кодирования : UTC 2015-09-23 22:03:06
Программа кодирования : mkvmerge v6.1.0 ('Old Devil') built on Mar 4 2013 09:10:42
Библиотека кодирования : libebml v1.3.0 + libmatroska v1.4.0

Видео
Идентификатор : 1
Формат : AVC
Формат/Информация : Advanced Video Codec
Профиль формата : High@L4.1
Параметр CABAC формата : Да
Параметр ReFrames формата : 8 кадров
Идентификатор кодека : V_MPEG4/ISO/AVC
Продолжительность : 1 ч. 28 м.
Битрейт : 980 Кбит/сек
Ширина : 688 пикселей
Высота : 348 пикселей
Соотношение сторон : 2,35:1
Соотношение сторон в оригинале : 2,35:1
Режим частоты кадров : Постоянный
Частота кадров : 25,000 кадров/сек
Цветовое пространство : YUV
Субдискретизация насыщенности : 4:2:0
Битовая глубина : 8 бит
Тип развёртки : Прогрессивная
Бит/(Пиксели*Кадры) : 0.164
Размер потока : 608 Мбайт (82%)
Библиотека кодирования : x264 core 130 r2273 b3065e6
Настройки программы : cabac=1 / ref=8 / deblock=1:-2:-1 / analyse=0x3:0x113 / me=umh / subme=10 / psy=1 / psy_rd=1.00:0.05 / mixed_ref=1 / me_range=32 / chroma_me=1 / trellis=2 / 8x8dct=1 / cqm=0 / deadzone=21,11 / fast_pskip=0 / chroma_qp_offset=-3 / threads=6 / lookahead_threads=1 / sliced_threads=0 / nr=0 / decimate=0 / interlaced=0 / bluray_compat=0 / constrained_intra=0 / bframes=8 / b_pyramid=2 / b_adapt=2 / b_bias=0 / direct=3 / weightb=1 / open_gop=0 / weightp=2 / keyint=250 / keyint_min=25 / scenecut=40 / intra_refresh=0 / rc=2pass / mbtree=0 / bitrate=980 / ratetol=1.0 / qcomp=0.60 / qpmin=0 / qpmax=69 / qpstep=4 / cplxblur=20.0 / qblur=0.5 / ip_ratio=1.40 / pb_ratio=1.30 / aq=1:1.00
Default : Да
Forced : Нет

Аудио
Идентификатор : 2
Формат : AC-3
Формат/Информация : Audio Coding 3
Расширение режима : CM (complete main)
Параметр Endianness формата : Big
Идентификатор кодека : A_AC3
Продолжительность : 1 ч. 28 м.
Вид битрейта : Постоянный
Битрейт : 192 Кбит/сек
Каналы : 2 канала
Расположение каналов : Front: L R
Частота : 48,0 КГц
Метод сжатия : С потерями
Размер потока : 122 Мбайт (16%)
Default : Да
Forced : Нет



Скачать Крепость через торрент http://s018.radikal.ru/i504/1509/4c/35369e4906a8.png Скачать, смотреть онлайн Крепость бесплантно в хорошем качестве Описание:Остросюжетный рассказ об операции "Крепость", проведенной советским десантом в последний год второй мировой войны по спасению ... 10 10 6
Info! Золотая раздача, скачанное не засчитывается.
Торрент: Зарегистрирован [2015-09-24 08:38] · скачан: 44 раз
Статус: √ проверено
Размер: 744 MB
Как cкачать? Как скачать Крепость через торрент | UTorrent

% Раздел Тема Автор DL S | L
Кино СССР [ 744 MB ] Крепость | | DVDRip от AVP Studio AVP Studio Скачать
1 | 0

28-11-2019 20:33  

Отключить вcю реклaмy на сайте

    Дорогой пользователь! Огромная просьба, поблагодарите релизера, оцените раздачу и оставьте свои комментарий, если Вы скачали Крепость через торрент бесплатно!!
    Комментировать посты могут только пользователи прошедшие не сложную регистрацию
    Показать сообщения:    


    Крепость через торрент
    Скачать бесплатно Крепость
    Крепость скачать торрент
    Крепость смотреть онлайн
    Cкачать фильм Крепость бесплатно
    Крепость скачать торрент в хорошем качестве
    Крепость смотреть онлайн бесплатно в хорошем качестве
    Вы не можете начинать темы
    Вы не можете отвечать на сообщения
    Вы не можете редактировать свои сообщения
    Вы не можете удалять свои сообщения
    Вы не можете голосовать в опросах
    Вы не можете прикреплять файлы к сообщениям
    Вы можете скачивать файлы