Присоединяйтесь к нам в Telegram!, здесь всегда актуальный адрес сайта, оперативная поддержка и многое другое!!

>

5.9

iTunes

7.4

iTunes

9.4

1 сезон

1

7.4

2 сезон

7.2

iTunes

7.3

1 сезон

13

6.1

iTunes

8.3

GOG

30

ULTIMATE

pack

9.9

Лицензия

ВАЖНО

ИГРА 18+

pack

7.3

RePack

MK11

7.7

RePack

jed

7.8

RePack

fifa19

8.5

RePack

RDR2

RePack

NEED FOR SPEED™ PAYBACK

5 сезон

9 сезон

Бесстыжие 9 сезон

Все сериалы

все сериалы на PB.wtf

RePack

FAR CRY 5

Anonymous, доброе утро, мы катастрофически не успеваем собрать деньги на оплату серверов, помогите нам пожалуйста 5,10,15р., для нас важна любая помощь . В качестве благодарности мы отключим Вам всю рекламу на сайте (укажите свой ник в строку Ваше имя)!

×
  
Magnet ссылка

Смерть хиппи! Да здравствуют панки! / Tod den Hippies!! Es lebe der Punk! (Оскар Рёлер) [2015 г., драма, мелодрама, криминал, DVDRip] DVO (den904 & deadsno) piratbit.org

Смерть хиппи! Да здравствуют панки! через торрент piratbit.org

Размер: 1.46 GB | Добавлен: 6 лет 2 мес. назад | Торрент скачан:124 раза
Смотреть онлайн Смерть хиппи! Да здравствуют панки! | Скачать    Ребята, помогите собрать деньги на оплату серверов!!!

25-09-2015 16:39 Смерть хиппи! Да здравствуют панки! Скачать торрент  

Смерть хиппи! Да здравствуют панки! / Tod den Hippies!! Es lebe der Punk!
Год выпуска: 2015
Страна: Германия
Жанр: драма, мелодрама, криминал
Продолжительность: 01:40:30
Перевод: Любительский двухголосный, закадровый (den904 & deadsno)
Субтитры: отсутствуют

Режиссер: Оскар Рёлер

http://www.imdb.com/title/tt3397082/



В ролях: Том Шиллинг, Гёц Отто, Фредерик Лау, Эмилия Шуле, Габриэль Шарницки, Луиза Вицорек, Самуэль Финци, Уилсон Оксенкнехт, Симон Боер, Александр Шеер

Описание: История не нашедшего себя в этой жизни парня, который в середине 80-х из тихого провинциального города приезжает в Западный Берлин и окунается в дикую и больную атмосферу мегаполиса со всеми его атрибутами: алкоголем, наркотиками, бесцельным времяпрепровождением…

Качество: DVDRip
Формат: AVI
Видео кодек: XviD
Аудио кодек: AC3
Видео: 720x384 (1.875), 25 fps ~ 1685 Kbps
Аудио#1: 48 KHz 2 ch ~ 192 Kb/s (русский)
Аудио#2: 48 KHz 6 ch ~ 192 Kb/s (немецкий)

СЭМПЛ
скриншот   скриншот   скриншот   скриншот   скриншот  

Общее
Полное имя : Q:\TorF\Smert.hippi.2015.L2.DVDRip.avi
Формат : AVI
Формат/Информация : Audio Video Interleave
Размер файла : 1,46 Гбайт
Продолжительность : 1 ч. 40 м.
Общий поток : 2083 Кбит/сек
Программа кодирования : VirtualDubMod 1.5.10.3 | www.virtualdub-fr.org || (build 2550/release)
Библиотека кодирования : VirtualDubMod build 2550/release

Видео
Идентификатор : 0
Формат : MPEG-4 Visual
Профиль формата : Advanced Simple@L5
Параметр BVOP формата : 1
Параметр QPel формата : Нет
Параметр GMC формата : Без точки перехода
Параметр матрицы формата : Default (H.263)
Идентификатор кодека : XVID
Идентификатор кодека/Подсказка : XviD
Продолжительность : 1 ч. 40 м.
Битрейт : 1685 Кбит/сек
Ширина : 720 пикселей
Высота : 384 пикселя
Соотношение сторон : 1,875
Частота кадров : 25,000 кадров/сек
Цветовое пространство : YUV
Субдискретизация насыщенности : 4:2:0
Битовая глубина : 8 бит
Тип развёртки : Прогрессивная
Метод сжатия : С потерями
Бит/(Пиксели*Кадры) : 0.244
Размер потока : 1,18 Гбайт (81%)
Библиотека кодирования : XviD 1.2.1 (UTC 2008-12-04)

Аудио #1
Идентификатор : 1
Формат : AC-3
Формат/Информация : Audio Coding 3
Расширение режима : CM (complete main)
Идентификатор кодека : 2000
Продолжительность : 1 ч. 40 м.
Вид битрейта : Постоянный
Битрейт : 192 Кбит/сек
Каналы : 2 канала
Расположение каналов : Front: L R
Частота : 48,0 КГц
Битовая глубина : 16 бит
Метод сжатия : С потерями
Размер потока : 138 Мбайт (9%)
Выравнивание : Соединение по промежуткам
Продолжительность промежутка : 40 мс. (1,00 видеокадр)
Время предзагрузки промежутка : 512 мс.

Аудио #2
Идентификатор : 2
Формат : AC-3
Формат/Информация : Audio Coding 3
Расширение режима : CM (complete main)
Идентификатор кодека : 2000
Продолжительность : 1 ч. 40 м.
Вид битрейта : Постоянный
Битрейт : 192 Кбит/сек
Каналы : 6 каналов
Расположение каналов : Front: L C R, Side: L R, LFE
Частота : 48,0 КГц
Битовая глубина : 16 бит
Метод сжатия : С потерями
Размер потока : 138 Мбайт (9%)
Выравнивание : Разделение по промежуткам
Продолжительность промежутка : 40 мс. (1,00 видеокадр)
Время предзагрузки промежутка : 500 мс.

piratbit.org



Скачать Смерть хиппи! Да здравствуют панки! через торрент https://pic.kartinco.top/images/11/hzpuq.jpg Скачать, смотреть онлайн Смерть хиппи! Да здравствуют панки! бесплантно в хорошем качестве Описание: История не нашедшего себя в этой жизни парня, который в середине 80-х из тихого провинциального города приезжает в Западный ... 8.6 10 8
Info! Золотая раздача, скачанное не засчитывается.
Торрент: Зарегистрирован [2015-09-25 16:39] · скачан: 124 раз
Статус: T временная
Размер: 1.46 GB
Как cкачать? Как скачать Смерть хиппи! Да здравствуют панки! через торрент | UTorrent



Последний раз редактировалось: PROCTOLOG (2015-09-25 18:23), всего редактировалось 2 раз(а)

28-11-2019 20:33  

Отключить всю рекламу на сайте

25-09-2015 17:02 Смерть хиппи! Да здравствуют панки! Скачать торрент  


Добавьте пожалуйста
Сэмпл
Как изготовить минутный видео сэмпл (Жмите)
13.3 Рекомендуется заливать сэмпл на:
rghost.ru
f-bit.ru
sendfile.su
Запрещено заливать сэмплы на платные файлообенники, также запрещено заливать сэмпл исключительно на depositfile, rapidshare и letitbit! piratbit.org



25-09-2015 18:28 Смерть хиппи! Да здравствуют панки! Скачать торрент  

Бесцельное времяпрепровождение?А что у нас цельное?Бычить с утра до ночи у станка за копейки?Да лучше обнюхаться да тёлку отдрючить!И сдохнуть молодым!Панки Хой!piratbit.org



01-10-2015 14:27 Смерть хиппи! Да здравствуют панки! Скачать торрент  

+1 панки хойpiratbit.org



    Дорогой пользователь! Огромная просьба, поблагодарите релизера, оцените раздачу и оставьте свои комментарий, если Вы скачали Смерть хиппи! Да здравствуют панки! через торрент бесплатно!
    Комментировать посты могут только пользователи прошедшие не сложную регистрацию
    Показать сообщения:    

    Смерть хиппи! Да здравствуют панки! через торрент
    Скачать бесплатно Смерть хиппи! Да здравствуют панки!
    Смерть хиппи! Да здравствуют панки! скачать торрент
    Смерть хиппи! Да здравствуют панки! смотреть онлайн
    Cкачать фильм Смерть хиппи! Да здравствуют панки! бесплатно
    Смерть хиппи! Да здравствуют панки! скачать торрент в хорошем качестве
    Смерть хиппи! Да здравствуют панки! смотреть онлайн бесплатно в хорошем качестве


    Вы не можете начинать темы
    Вы не можете отвечать на сообщения
    Вы не можете редактировать свои сообщения
    Вы не можете удалять свои сообщения
    Вы не можете голосовать в опросах
    Вы не можете прикреплять файлы к сообщениям
    Вы можете скачивать файлы