Присоединяйтесь к нам в Telegram!, здесь всегда актуальный адрес сайта, оперативная поддержка и многое другое!!

>

5.9

iTunes

7.4

iTunes

9.4

1 сезон

1

7.4

2 сезон

7.2

iTunes

7.3

1 сезон

13

6.1

iTunes

8.3

GOG

30

ULTIMATE

pack

9.9

Лицензия

ВАЖНО

ИГРА 18+

pack

7.3

RePack

MK11

7.7

RePack

jed

7.8

RePack

fifa19

8.5

RePack

RDR2

RePack

NEED FOR SPEED™ PAYBACK

5 сезон

9 сезон

Бесстыжие 9 сезон

Все сериалы

все сериалы на PB.wtf

RePack

FAR CRY 5

Anonymous, добрый день, мы катастрофически не успеваем собрать деньги на оплату серверов, помогите нам пожалуйста 5,10,15р., для нас важна любая помощь . В качестве благодарности мы отключим Вам всю рекламу на сайте (укажите свой ник в строку Ваше имя)!

×
  
Magnet ссылка

Прогулка по Миссисипи / Mississippi Grind (Анна Боден, Райан Флек) [2015, драма, WEB-DLRip, Любительский одноголосый [R.A.I.M.] piratbit.org

Прогулка по Миссисипи через торрент piratbit.org

Размер: 1.42 GB | Добавлен: 6 лет 2 мес. назад | Торрент скачан:145 раз
Смотреть онлайн Прогулка по Миссисипи | Скачать    Ребята, помогите собрать деньги на оплату серверов!!!

28-09-2015 18:39 Прогулка по Миссисипи Скачать торрент  


Прогулка по Миссисипи / Mississippi Grind
««We can't lose»»

ИНФОРМАЦИЯ:
Год выпуска:2015
Страна: США
Жанр: драма
Продолжительность: 01:48:19
Перевод: Любительский одноголосый [R.A.I.M.]
Режиссер: Анна Боден, Райан Флек

В Ролях:


Бен Мендельсон (Gerry), Райан Рейнольдс (Curtis), Ивонн Ландри (Louise), Энтони Ховард (Larry), Джэйсон Уорнер Смит (Clifford), Керри Кехилл (Riverboat Waitress), Джейн МакНейлл («Bloody Mary» Kate), Jason Shaffette (Chuck Poker Dealer), П.Дж. Маршалл (Dale), Стефани Онор (Denise), Тери Уайбл (Home Buying Wife), Хантер Бурк (Home Buying Husband)

Описание:
Фильм расскажет о стареющем картежнике, который вместе с молодым коллегой путешествует по югу Америки.

  • Мировая премьера:24 января 2015

    ТЕХ.ДАННЫЕ:
    Качество: WEB-DLRip
    Формат: AVI
    Видео: XviD, 720x300 (2.40:1), 1597 kbps, 23,976 fps, 0,308 bpp
    Аудио: AC3 / 2.0 / 48 kHz / 192 kbps / 16 bit


    General
    Complete name : D:\Торенты\Mississippi.Grind.2015.RAIM.avi
    Format : AVI
    Format/Info : Audio Video Interleave
    File size : 1.42 GiB
    Duration : 1h 48mn
    Overall bit rate : 1 872 Kbps
    Writing application : VirtualDubMod 1.5.10.3 | www.virtualdub-fr.org || (build 2550/release)
    Writing library : VirtualDubMod build 2550/release

    Video
    ID : 0
    Format : MPEG-4 Visual
    Format profile : Advanced Simple@L5
    Format settings, BVOP : 2
    Format settings, QPel : No
    Format settings, GMC : No warppoints
    Format settings, Matrix : Default (H.263)
    Muxing mode : Packed bitstream
    Codec ID : XVID
    Codec ID/Hint : XviD
    Duration : 1h 48mn
    Bit rate : 1 597 Kbps
    Width : 720 pixels
    Height : 300 pixels
    Display aspect ratio : 2.40:1
    Frame rate : 23.976 fps
    Color space : YUV
    Chroma subsampling : 4:2:0
    Bit depth : 8 bits
    Scan type : Progressive
    Compression mode : Lossy
    Bits/(Pixel*Frame) : 0.308
    Stream size : 1.21 GiB (85%)
    Writing library : XviD 66

    Audio
    ID : 1
    Format : AC-3
    Format/Info : Audio Coding 3
    Mode extension : CM (complete main)
    Codec ID : 2000
    Duration : 1h 48mn
    Bit rate mode : Constant
    Bit rate : 192 Kbps
    Channel(s) : 2 channels
    Channel positions : Front: L R
    Sampling rate : 48.0 KHz
    Bit depth : 16 bits
    Compression mode : Lossy
    Stream size : 149 MiB (10%)
    Alignment : Split accross interleaves
    Скриншоты:






    © Оформление by Ворон
    piratbit.org



  • Скачать Прогулка по Миссисипи через торрент https://pic1.kartinco.top/images/61/ordi9.jpg Скачать, смотреть онлайн Прогулка по Миссисипи бесплантно в хорошем качестве Описание: Фильм расскажет о стареющем картежнике, который вместе с молодым коллегой путешествует по югу Америки. Мировая премьера:24 января ... 10 10 7
    Торрент: Зарегистрирован [2015-09-28 18:39] · скачан: 145 раз
    Статус: T временная
    Размер: 1.42 GB
    Как cкачать? Как скачать Прогулка по Миссисипи через торрент | UTorrent

    % Раздел Тема Автор DL S | L
    T Фильмы [HD 720p, 1080p] (Хороший звук DUB, MVO) [ 13.91 GB ] Прогулка по Миссисипи / Mississippi Grind [2014 BDRip 1080p] Любительский [CCK Media Production] Ворон Скачать
    1 | 0
    T Фильмы 2015 [DVDrip, WEB-DLRip, HDrip] [ 1.4 GB ] Прогулка по Миссисипи / Mississippi Grind [2015 HDRip Любительский многоголосый [CCK Media Production] Ворон Скачать
    1 | 0
    Фильмы с авторской озвучкой [ 2.18 GB ] Прогулка по Миссисипи / Mississippi Grind [2015 BDRip-AVC от _denis_100 / NNNB] Авторский [М. Чадов] _denis_100 Скачать
    1 | 0
    T Фильмы 2015 (Звук TS, Cam, VO, DVO) [ 1.45 GB ] Прогулка по Миссисипи / Mississippi Grind [2015 HDRip Любительский двухголосый [Parovoz Production] Ворон Скачать
    1 | 0

    28-11-2019 20:33  

    Отключить всю рекламу на сайте

      Дорогой пользователь! Огромная просьба, поблагодарите релизера, оцените раздачу и оставьте свои комментарий, если Вы скачали Прогулка по Миссисипи через торрент бесплатно!
      Комментировать посты могут только пользователи прошедшие не сложную регистрацию
      Показать сообщения:    

      Прогулка по Миссисипи через торрент
      Скачать бесплатно Прогулка по Миссисипи
      Прогулка по Миссисипи скачать торрент
      Прогулка по Миссисипи смотреть онлайн
      Cкачать фильм Прогулка по Миссисипи бесплатно
      Прогулка по Миссисипи скачать торрент в хорошем качестве
      Прогулка по Миссисипи смотреть онлайн бесплатно в хорошем качестве


      Вы не можете начинать темы
      Вы не можете отвечать на сообщения
      Вы не можете редактировать свои сообщения
      Вы не можете удалять свои сообщения
      Вы не можете голосовать в опросах
      Вы не можете прикреплять файлы к сообщениям
      Вы можете скачивать файлы