Доктор Стрэндж

Лицензия

Добыча

MVO

Дом дракона

1 сезон

Тор

Лицензия

Мэверик

Лицензия

Там, где раки поют

MVO

Властелин колец

1 сезон

Ultimate

pack

Рекомендуем

30

Repack

ВАЖНО

ВАЖНО

Ghostwire

RePack

jed

RePack

nioh2

RePack

RDR2

RePack

NEED FOR SPEED™ PAYBACK

RePack

скачать торрент

Кинопоиск HD

Острые козырьки 6 сезон

6 сезон

FAR CRY 6

RePack

скачать торрент

Лицензия

скачать торрент

MVO

1

1 сезон

скачать торрент

1 сезон

скачать торрент

Лицензия

  

Смелые люди (Константин Юдин) [1950, СССР, боевик, драма, военный, DVDRip от AVP Studio]

Смелые люди через торрент piratbit.org

Размер: 1.09 GB | Добавлен: 7 лет назад | Торрент скачан:7 раз
Смотреть онлайн | Скачать   

02-10-2015 08:53 Смелые люди Скачать торрент  

Смелые люди
Страна: СССР
Производство: МОСФИЛЬМ

Жанр: боевик, драма, военный
Год выпуска: 1950
Продолжительность: 01:31:48

Перевод: Не требуется
Cубтитры: нет
Оригинальная аудиодорожка: русский

Режиссер: Константин Юдин

В ролях:
Сергей Гурзо (старший), Алексей Грибов, Тамара Чернова, Олег Солюс, Николай Мордвинов, Владимир Дорофеев, Капан Бадыров, Сергей Бобров, Олег Потоцкий, Георгий Гумилевский, Виктор Проклов, Семён Свашенко, Ростислав Плятт, Григорий Шпигель...
Полный список актёров

Описание:
Довоенные годы... Молодой табунщик конного завода Вася Говорухин (Сергей Гурзо) воспитал замечательного коня Буяна, в выдающихся качествах которого сомневается только жестокий тренер Белецкий. Начало войны выявляет истинную сущность Белецкого, который на самом деле был немецким шпионом и готовился передать врагу элитных советских лошадей.
Работники конного завода на оккупированной территории организуют партизанский отряд под руководством секретаря райкома Кожина для действий в тылу врага. Вася Говорухин, которому помогает его верный конь, проявляет храбрость и находчивость, разоблачая шпиона и спасая лучших лошадей от вывоза в Германию…
Фильм снят в редком для советского кино жанре вестерна. Лихо скачет старый тренер Воронов, заворачивая табун, которому грозит падение в пропасть... Говорухин отчаянно борется с негодяем Белецким, сбежавшим из-под охраны... Освобождая Буяна из немецкого "плена", Вася демонстрирует чудеса джигитовки, уходя и отстреливаясь от погони... Удивительно сообразителен Буян: он ложится на землю, чтобы тяжело раненый хозяин мог взобраться на его спину... И наконец, волнующая финальная сцена: Говорухин на верном Буяне догоняет немецкий эшелон и отцепляет от него два вагона с советскими девушками, угоняемыми в неволю...
В пятидесятые годы фильм был рекордсменом кинопроката, мальчишки смотрели его по многу раз, во дворах играли в Васю Говорухина...

Источник: DVD5 R5
Качество видео: DVDRip
Формат видео: AVI

Видео: 688x512 (4:3), 25 fps, XviD ~ 1496 kbps avg, 0.170 bit/pixel
Аудио: 48 kHz, Dolby Digital AC3 2.0, 192 kbps

Раздача от:
Общее
Полное имя : Smelye.lyudi.1950.DVDRip_[New-team]_by_AVP_Studio.avi
Формат : AVI
Формат/Информация : Audio Video Interleave
Размер файла : 1,09 Гбайт
Продолжительность : 1 ч. 31 м.
Общий поток : 1697 Кбит/сек
Программа кодирования : VirtualDubMod 1.5.10.3 | www.virtualdub-fr.org || (build 2550/release)
Библиотека кодирования : VirtualDubMod build 2550/release

Видео
Идентификатор : 0
Формат : MPEG-4 Visual
Профиль формата : Advanced Simple@L5
Параметр BVOP формата : 1
Параметр QPel формата : Нет
Параметр GMC формата : Без точки перехода
Параметр матрицы формата : Выборочная
Идентификатор кодека : XVID
Идентификатор кодека/Подсказка : XviD
Продолжительность : 1 ч. 31 м.
Битрейт : 1496 Кбит/сек
Ширина : 688 пикселей
Высота : 512 пикселей
Соотношение сторон : 4:3
Частота кадров : 25,000 кадров/сек
Цветовое пространство : YUV
Субдискретизация насыщенности : 4:2:0
Битовая глубина : 8 бит
Тип развёртки : Прогрессивная
Метод сжатия : С потерями
Бит/(Пиксели*Кадры) : 0.170
Размер потока : 982 Мбайт (88%)
Библиотека кодирования : XviD 73

Аудио
Идентификатор : 1
Формат : AC-3
Формат/Информация : Audio Coding 3
Расширение режима : CM (complete main)
Параметр Endianness формата : Big
Идентификатор кодека : 2000
Продолжительность : 1 ч. 31 м.
Вид битрейта : Постоянный
Битрейт : 192 Кбит/сек
Каналы : 2 канала
Расположение каналов : Front: L R
Частота : 48,0 КГц
Метод сжатия : С потерями
Размер потока : 126 Мбайт (11%)
Выравнивание : Разделение по промежуткам
Продолжительность промежутка : 40 мс. (1,00 видеокадр)
Время предзагрузки промежутка : 500 мс



Скачать Смелые люди через торрент http://s018.radikal.ru/i520/1510/a3/5ea119e5e987.png Скачать, смотреть онлайн Смелые люди бесплантно в хорошем качестве Описание:Довоенные годы... Молодой табунщик конного завода Вася Говорухин (Сергей Гурзо) воспитал замечательного коня Буяна, в выдающихся ... 10 10 2
Info! Золотая раздача, скачанное не засчитывается.
Торрент: Зарегистрирован [2015-10-02 08:53] · скачан: 7 раз
Статус: √ проверено
Размер: 1.09 GB
Как cкачать? Как скачать Смелые люди через торрент | UTorrent

% Раздел Тема Автор DL S | L
Кино СССР [ 1.09 GB ] Смелые люди | | DVDRip-AVC от AVP Studio AVP Studio Скачать
1 | 0
Кино СССР [ 745 MB ] Смелые люди | | DVDRip от AVP Studio AVP Studio Скачать
1 | 0

28-11-2019 20:33  


Отключить вcю реклaмy на сайте, в т.ч. и в плеере онлайн просмотра!

    Дорогой пользователь! Огромная просьба, поблагодарите релизера, оцените раздачу и оставьте свои комментарий, если Вы скачали Смелые люди через торрент бесплатно!!
    Комментировать посты могут только пользователи прошедшие не сложную регистрацию
    Показать сообщения:    


    Смелые люди через торрент
    Скачать бесплатно Смелые люди
    Смелые люди скачать торрент
    Смелые люди смотреть онлайн
    Cкачать фильм Смелые люди бесплатно
    Смелые люди скачать торрент в хорошем качестве
    Смелые люди смотреть онлайн бесплатно в хорошем качестве
    Вы не можете начинать темы
    Вы не можете отвечать на сообщения
    Вы не можете редактировать свои сообщения
    Вы не можете удалять свои сообщения
    Вы не можете голосовать в опросах
    Вы не можете прикреплять файлы к сообщениям
    Вы можете скачивать файлы