Доктор Стрэндж

Лицензия

Добыча

MVO

Дом дракона

1 сезон

Тор

Лицензия

Мэверик

Лицензия

Там, где раки поют

MVO

Властелин колец

1 сезон

Ultimate

pack

Рекомендуем

30

Repack

ВАЖНО

ВАЖНО

Ghostwire

RePack

jed

RePack

nioh2

RePack

RDR2

RePack

NEED FOR SPEED™ PAYBACK

RePack

скачать торрент

Кинопоиск HD

Острые козырьки 6 сезон

6 сезон

FAR CRY 6

RePack

скачать торрент

Лицензия

скачать торрент

MVO

1

1 сезон

скачать торрент

1 сезон

скачать торрент

Лицензия

  

В степи (Борис Бунеев, А. Ульянцев) [1950, СССР, короткометражка, драма, VHSRip]

В степи через торрент piratbit.org

Размер: 744 MB | Добавлен: 6 лет 11 мес. назад | Торрент скачан:4 раза
Смотреть онлайн В степи | Скачать   

04-10-2015 10:05 В степи Скачать торрент  

В степи
Страна: СССР
Производство: К/ст им.Горького

Жанр: короткометражка, драма
Год выпуска: 1950
Продолжительность: 00:40:38

Перевод: Не требуется
Cубтитры: нет
Оригинальная аудиодорожка: русский

Режиссер: Борис Бунеев, А. Ульянцев

В ролях:
Борис Елисеев, Андрей Тарасов, Наталья Защипина, Володя Феоктистов, Анатолий Керби, Юрий Кононов, Марк Бернес, Всеволод Санаев, Павел Волков, Юрий Саранцев, Валентина Телегина...
Полный список актёров

Описание:
По повести Петра Павленко "Степное солнце".
Пионер Сережа Емельянов, ранее никогда не бывавший в степи, приезжает с отцом, шофером, на уборку урожая. Его ранние представления о колхозной жизни, как о чем-то ужасно скучном и ненужном, под впечатлением проделанной работы меняются - и мальчик с большой грустью расстается со степью и природой, которую полюбил на всю жизнь.
Изначально стереофильм.

Источник: VHS
Качество видео: VHSRip
Формат видео: AVI

Видео: 688x512 (4:3), 25 fps, XviD ~ 2359 kbps avg, 0.268 bit/pixel
Аудио: 48 kHz, Dolby Digital AC3 2.0, 192 kbps

Раздача от:
Общее
Полное имя : V.stepi.1950.VHSRip_[New-team]_by_AVP_Studio.avi
Формат : AVI
Формат/Информация : Audio Video Interleave
Размер файла : 744 Мбайт
Продолжительность : 40 м.
Общий поток : 2561 Кбит/сек
Программа кодирования : VirtualDubMod 1.5.10.3 | www.virtualdub-fr.org || (build 2550/release)
Библиотека кодирования : VirtualDubMod build 2550/release

Видео
Идентификатор : 0
Формат : MPEG-4 Visual
Профиль формата : Advanced Simple@L5
Параметр BVOP формата : 1
Параметр QPel формата : Нет
Параметр GMC формата : Без точки перехода
Параметр матрицы формата : Выборочная
Идентификатор кодека : XVID
Идентификатор кодека/Подсказка : XviD
Продолжительность : 40 м.
Битрейт : 2359 Кбит/сек
Ширина : 688 пикселей
Высота : 512 пикселей
Соотношение сторон : 4:3
Частота кадров : 25,000 кадров/сек
Цветовое пространство : YUV
Субдискретизация насыщенности : 4:2:0
Битовая глубина : 8 бит
Тип развёртки : Прогрессивная
Метод сжатия : С потерями
Бит/(Пиксели*Кадры) : 0.268
Размер потока : 686 Мбайт (92%)
Библиотека кодирования : XviD 73

Аудио
Идентификатор : 1
Формат : AC-3
Формат/Информация : Audio Coding 3
Расширение режима : CM (complete main)
Параметр Endianness формата : Big
Идентификатор кодека : 2000
Продолжительность : 40 м.
Вид битрейта : Постоянный
Битрейт : 192 Кбит/сек
Каналы : 2 канала
Расположение каналов : Front: L R
Частота : 48,0 КГц
Метод сжатия : С потерями
Размер потока : 55,8 Мбайт (7%)
Выравнивание : Разделение по промежуткам
Продолжительность промежутка : 40 мс. (1,00 видеокадр)
Время предзагрузки промежутка : 500 мс



Скачать В степи через торрент http://i057.radikal.ru/1510/71/54ac1aa47a60.png Скачать, смотреть онлайн В степи бесплантно в хорошем качестве Описание:По повести Петра Павленко "Степное солнце".Пионер Сережа Емельянов, ранее никогда не бывавший в степи, приезжает с отцом, шофером, ... 10 10 1
Info! Золотая раздача, скачанное не засчитывается.
Торрент: Зарегистрирован [2015-10-04 10:05] · скачан: 4 раз
Статус: √ проверено
Размер: 744 MB
Как cкачать? Как скачать В степи через торрент | UTorrent

% Раздел Тема Автор DL S | L
Кино СССР [ 745 MB ] В степи | | В степи (Борис Бунеев, А. Ульянцев AVP Studio Скачать
1 | 0

28-11-2019 20:33  

Отключить вcю реклaмy на сайте

    Дорогой пользователь! Огромная просьба, поблагодарите релизера, оцените раздачу и оставьте свои комментарий, если Вы скачали В степи через торрент бесплатно!!
    Комментировать посты могут только пользователи прошедшие не сложную регистрацию
    Показать сообщения:    


    В степи через торрент
    Скачать бесплатно В степи
    В степи скачать торрент
    В степи смотреть онлайн
    Cкачать фильм В степи бесплатно
    В степи скачать торрент в хорошем качестве
    В степи смотреть онлайн бесплатно в хорошем качестве
    Вы не можете начинать темы
    Вы не можете отвечать на сообщения
    Вы не можете редактировать свои сообщения
    Вы не можете удалять свои сообщения
    Вы не можете голосовать в опросах
    Вы не можете прикреплять файлы к сообщениям
    Вы можете скачивать файлы