Присоединяйтесь к нам в Telegram!, здесь всегда актуальный адрес сайта, оперативная поддержка и многое другое!!

>

5.9

iTunes

7.4

iTunes

9.4

1 сезон

1

7.4

2 сезон

7.2

iTunes

7.3

iTunes

13

6.1

iTunes

8.3

Пиратка

30

ULTIMATE

pack

9.9

Лицензия

ВАЖНО

ИГРА 18+

pack

7.3

RePack

MK11

7.7

RePack

jed

7.8

RePack

fifa19

8.5

RePack

RDR2

RePack

NEED FOR SPEED™ PAYBACK

5 сезон

9 сезон

Бесстыжие 9 сезон

Все сериалы

все сериалы на PB.wtf

RePack

FAR CRY 5

Anonymous, добрый вечер, мы катастрофически не успеваем собрать деньги на оплату серверов, помогите нам пожалуйста 5,10,15р., для нас важна любая помощь . В качестве благодарности мы отключим Вам всю рекламу на сайте (укажите свой ник в строку Ваше имя)!

×
  
Magnet ссылка

Полицейская тачка / Cop Car (Джон Уоттс) [2015 г., триллер, криминал, HDRip by Dean24] (Любительский, одноголосый) piratbit.org

Полицейская тачка через торрент piratbit.org

Размер: 1.46 GB | Добавлен: 6 лет 2 мес. назад | Торрент скачан:118 раз
Смотреть онлайн Полицейская тачка | Скачать    Ребята, помогите собрать деньги на оплату серверов!!!

04-10-2015 15:50 Полицейская тачка Скачать торрент  

Полицейская тачка / Cop CarГод выпуска: 2015
Страна: США
Жанр: триллер, криминал
Продолжительность: 01:27:57
Перевод: Любительский, одноголосый | Paul Bunyan

Режиссер: Джон Уоттс
Продюссер: Сэм Бисби, Andrew Kortschak, Коуди Райдер
Сценарий: Джон Уоттс, Кристофер Д. Форд

Премьера в мире: 24 января 2015



В ролях: Кевин Бейкон, Джеймс Фридсон-Джексон, Хэйс Уэллфорд, Камрин Менхейм, Ши Уигхэм, Sean Hartley, Кира Седжвик, Loi Nguyen, Sit Lenh, Chuck Kull

Описание: Два 10-летних мальчишки находят заброшенный полицейский автомобиль и решают присвоить его себе. Обычная детская игра начинает приобретать пугающие черты после того, как шериф небольшого городка отправляется на поиски своей пропавшей машины.

Качество: HDRip | BDRip 720p
Формат: AVI
Видео кодек: XviD
Аудио кодек: AC3
Видео: 720x304 (2.37:1), 23.976 fps, XviD build 50 ~1984 kbps avg, 0.38 bit/pixel
Аудио: 48 kHz, AC3 Dolby Digital, 3/2 (L,C,R,l,r) + LFE ch, ~384 kbps



Автор рипа: Dean24
|
Общее
Полное имя : D:\Мои документы\Фильмы\Сайт\Cop.Car.HDRip.avi
Формат : AVI
Формат/Информация : Audio Video Interleave
Размер файла : 1,46 Гбайт
Продолжительность : 1 ч. 27 м.
Общий поток : 2378 Кбит/сек
Программа кодирования : VirtualDubMod 1.5.10.3 | (build 2550/release)
Библиотека кодирования : VirtualDubMod build 2550/release

Видео
Идентификатор : 0
Формат : MPEG-4 Visual
Профиль формата : Advanced Simple@L5
Параметр BVOP формата : 3
Параметр QPel формата : Нет
Параметр GMC формата : Без точки перехода
Параметр матрицы формата : Default (H.263)
Идентификатор кодека : XVID
Идентификатор кодека/Подсказка : XviD
Продолжительность : 1 ч. 27 м.
Битрейт : 1985 Кбит/сек
Ширина : 720 пикселей
Высота : 304 пикселя
Соотношение сторон : 2,35:1
Частота кадров : 23,976 кадра/сек
Цветовое пространство : YUV
Субдискретизация насыщенности : 4:2:0
Битовая глубина : 8 бит
Тип развёртки : Прогрессивная
Метод сжатия : С потерями
Бит/(Пиксели*Кадры) : 0.378
Размер потока : 1,22 Гбайт (83%)
Библиотека кодирования : XviD 1.2.1 (UTC 2008-12-04)

Аудио
Идентификатор : 1
Формат : AC-3
Формат/Информация : Audio Coding 3
Расширение режима : CM (complete main)
Параметр Endianness формата : Big
Идентификатор кодека : 2000
Продолжительность : 1 ч. 27 м.
Вид битрейта : Постоянный
Битрейт : 384 Кбит/сек
Каналы : 6 каналов
Расположение каналов : Front: L C R, Side: L R, LFE
Частота : 48,0 КГц
Битовая глубина : 16 бит
Метод сжатия : С потерями
Размер потока : 241 Мбайт (16%)
Выравнивание : Разделение по промежуткам
Продолжительность промежутка : 42 мс. (1,00 видеокадр)
Время предзагрузки промежутка : 500 мс.

piratbit.org



Скачать Полицейская тачка через торрент http://i72.fastpic.ru/big/2015/1004/32/7da3051a5805892aba666256006f9432.png Скачать, смотреть онлайн Полицейская тачка бесплантно в хорошем качестве Описание: Два 10-летних мальчишки находят заброшенный полицейский автомобиль и решают присвоить его себе. Обычная детская игра начинает ... 9.9 10 7
Торрент: Зарегистрирован [2015-10-04 15:50] · скачан: 118 раз
Статус: T временная
Размер: 1.46 GB
Как cкачать? Как скачать Полицейская тачка через торрент | UTorrent

% Раздел Тема Автор DL S | L
T Релизы по Парсеру [Игры, Сериалы и Фильмы и другое...] [ 4 GB ] Полицейская тачка / Cop Car [2015 BDRip 720p] MVO [Paradox&Omskbird] GEKADOL Скачать
1 | 0
T Фильмы 2015 [DVDrip, WEB-DLRip, HDrip] [ 1.37 GB ] Полицейская тачка / Cop Car [2015 HDRip] MVO [Paradox&Omskbird] GEKADOL Скачать
1 | 0
Фильмы с авторской озвучкой [ 1.46 GB ] Полицейская тачка / Cop Car [2015 BDRip-AVC] AVO [М.Чадов] potroks Скачать
1 | 0
Фильмы с авторской озвучкой [ 2.05 GB ] Полицейская тачка / Cop Car [2015 BDRip-AVC от _denis_100 / NNNB] Авторский [М. Чадов] _denis_100 Скачать
1 | 0
Фильмы с авторской озвучкой [ 1.46 GB ] Полицейская тачка / Cop Car [2015 BDRip Авторский [Чадов] Twi7ter Скачать
1 | 0
T Фильмы [HD 720p, 1080p] (Звук Cam, VO, DVO) [ 10.61 GB ] Полицейская тачка / Cop Car [2015 BDRip 1080p Любительский [Paul Bunyan]] Бумер Скачать
1 | 0
T Фильмы 2015 (Звук TS, Cam, VO, DVO) [ 1.37 GB ] Полицейская тачка / Cop Car [2015 WEB-DLRip Любительский ] _KaisiK_ Скачать
1 | 0

28-11-2019 20:33  

Отключить всю рекламу на сайте

10-10-2015 11:05 Полицейская тачка Скачать торрент  

Фильм понравился. Получше многих из высокобюджетного шлака.piratbit.org



    Дорогой пользователь! Огромная просьба, поблагодарите релизера, оцените раздачу и оставьте свои комментарий, если Вы скачали Полицейская тачка через торрент бесплатно!
    Комментировать посты могут только пользователи прошедшие не сложную регистрацию
    Показать сообщения:    

    Полицейская тачка через торрент
    Скачать бесплатно Полицейская тачка
    Полицейская тачка скачать торрент
    Полицейская тачка смотреть онлайн
    Cкачать фильм Полицейская тачка бесплатно
    Полицейская тачка скачать торрент в хорошем качестве
    Полицейская тачка смотреть онлайн бесплатно в хорошем качестве


    Вы не можете начинать темы
    Вы не можете отвечать на сообщения
    Вы не можете редактировать свои сообщения
    Вы не можете удалять свои сообщения
    Вы не можете голосовать в опросах
    Вы не можете прикреплять файлы к сообщениям
    Вы можете скачивать файлы