Доктор Стрэндж

Лицензия

Добыча

MVO

Дом дракона

1 сезон

Тор

Лицензия

Мэверик

Лицензия

Там, где раки поют

MVO

Властелин колец

1 сезон

Ultimate

pack

Рекомендуем

30

Repack

ВАЖНО

ВАЖНО

Ghostwire

RePack

jed

RePack

nioh2

RePack

RDR2

RePack

NEED FOR SPEED™ PAYBACK

RePack

скачать торрент

Кинопоиск HD

Острые козырьки 6 сезон

6 сезон

FAR CRY 6

RePack

скачать торрент

Лицензия

скачать торрент

MVO

1

1 сезон

скачать торрент

1 сезон

скачать торрент

Лицензия

  

Свадебная ночь (Александр Карпов) [1980, СССР, драма, военный, SATRip от AVP Studio]

Свадебная ночь через торрент piratbit.org

Размер: 744 MB | Добавлен: 6 лет 11 мес. назад | Торрент скачан:11 раз
Смотреть онлайн | Скачать   

08-10-2015 08:48 Свадебная ночь Скачать торрент  

Свадебная ночь
Страна: СССР
Производство: Беларусьфильм

Жанр: драма, военный
Год выпуска: 1980
Продолжительность: 01:04:29

Перевод: Не требуется
Cубтитры: нет
Оригинальная аудиодорожка: русский

Режиссер: Александр Карпов

В ролях:
Ирина Корытникова, Наталья Андрейченко, Михаил Долгинин, Пётр Юрченков (ст.), Татьяна Шашалевич-Дедюшко, Виктор Тарасов, Августин Милованов, Юрий Ступаков, Иван Сидоров...
Полный список актёров

Описание:
По повести Ивана Шамякина.
Лето 1942 года. Партизанская связная Валя Мережко направляется в город на связь с подпольщиками. Ее связным оказывается Степан - они полюбили друг друга еще до войны. Лето 1943 года. В партизанский отряд для выполнения особо важного задания прибывает с большой земли красивая разведчица Маша. Валя через Степана связывает Машу с подпольщиками. Временами ей кажется, что Степан может полюбить Машу. Однажды, не выдержав мук ревности, Валя пробирается в город и попадает на свадьбу Степана и Маши. Она не знала, что свадьбу устроили партизаны, чтобы осветить железнодорожную станцию и, тем самым, помочь советским бомбардировщикам. Эта "свадьба" закончится тем, что Маша и Степан попадут в руки немцев и будут приговорены к расстрелу.

Источник: DVB
Качество видео: SATRip
Формат видео: AVI

Видео: 688x512 (4:3), 25 fps, XviD ~ 1411 kbps avg, 0.160 bit/pixel
Аудио: 48 kHz, Dolby Digital AC3 2.0, 192 kbps

Раздача от:
Общее
Полное имя : Svadebnaya.noch.1980.SATRip_[New-team]_by_AVP_Studio.avi
Формат : AVI
Формат/Информация : Audio Video Interleave
Размер файла : 744 Мбайт
Продолжительность : 1 ч. 4 м.
Общий поток : 1613 Кбит/сек
Программа кодирования : VirtualDubMod 1.5.10.3 | www.virtualdub-fr.org || (build 2550/release)
Библиотека кодирования : VirtualDubMod build 2550/release

Видео
Идентификатор : 0
Формат : MPEG-4 Visual
Профиль формата : Advanced Simple@L5
Параметр BVOP формата : 1
Параметр QPel формата : Нет
Параметр GMC формата : Без точки перехода
Параметр матрицы формата : Выборочная
Идентификатор кодека : XVID
Идентификатор кодека/Подсказка : XviD
Продолжительность : 1 ч. 4 м.
Битрейт : 1411 Кбит/сек
Ширина : 688 пикселей
Высота : 512 пикселей
Соотношение сторон : 4:3
Частота кадров : 25,000 кадров/сек
Цветовое пространство : YUV
Субдискретизация насыщенности : 4:2:0
Битовая глубина : 8 бит
Тип развёртки : Прогрессивная
Метод сжатия : С потерями
Бит/(Пиксели*Кадры) : 0.160
Размер потока : 651 Мбайт (87%)
Библиотека кодирования : XviD 73

Аудио
Идентификатор : 1
Формат : AC-3
Формат/Информация : Audio Coding 3
Расширение режима : CM (complete main)
Параметр Endianness формата : Big
Идентификатор кодека : 2000
Продолжительность : 1 ч. 4 м.
Вид битрейта : Постоянный
Битрейт : 192 Кбит/сек
Каналы : 2 канала
Расположение каналов : Front: L R
Частота : 48,0 КГц
Метод сжатия : С потерями
Размер потока : 88,6 Мбайт (12%)
Выравнивание : Разделение по промежуткам
Продолжительность промежутка : 40 мс. (1,00 видеокадр)
Время предзагрузки промежутка : 500 мс



Скачать Свадебная ночь через торрент http://s017.radikal.ru/i443/1510/43/f144ea160dad.png Скачать, смотреть онлайн Свадебная ночь бесплантно в хорошем качестве Описание:По повести Ивана Шамякина.Лето 1942 года. Партизанская связная Валя Мережко направляется в город на связь с подпольщиками. Ее ... 10 10 1
Торрент: Зарегистрирован [2015-10-08 08:48] · скачан: 11 раз
Статус: √ проверено
Размер: 744 MB
Как cкачать? Как скачать Свадебная ночь через торрент | UTorrent

% Раздел Тема Автор DL S | L
Кино СССР [ 1.09 GB ] Свадебная ночь | | SATRip-AVC от AVP Studio AVP Studio Скачать
1 | 0

28-11-2019 20:33  


Отключить вcю реклaмy на сайте, в т.ч. и в плеере онлайн просмотра!

    Дорогой пользователь! Огромная просьба, поблагодарите релизера, оцените раздачу и оставьте свои комментарий, если Вы скачали Свадебная ночь через торрент бесплатно!!
    Комментировать посты могут только пользователи прошедшие не сложную регистрацию
    Показать сообщения:    


    Свадебная ночь через торрент
    Скачать бесплатно Свадебная ночь
    Свадебная ночь скачать торрент
    Свадебная ночь смотреть онлайн
    Cкачать фильм Свадебная ночь бесплатно
    Свадебная ночь скачать торрент в хорошем качестве
    Свадебная ночь смотреть онлайн бесплатно в хорошем качестве
    Вы не можете начинать темы
    Вы не можете отвечать на сообщения
    Вы не можете редактировать свои сообщения
    Вы не можете удалять свои сообщения
    Вы не можете голосовать в опросах
    Вы не можете прикреплять файлы к сообщениям
    Вы можете скачивать файлы