Marvel's Avengers Deluxe Edition (супер цена) 159р. Внимание количество ограничено!!!

2 сезон

iTunes

iTunes

1

iTunes

iTunes

iTunes

WEBRip

iTunes

30
pack

Новость дня

ВАЖНО

!!Акция!!

Alien_RageХит недели

RePack

Horizon Zero Dawn

ИГРА 18+

pack

RePack

jed

!!Акция!!

Alien_Rage

RePack

fifa19

RePack

Assassins Creed: Odyssey

RePack

NEED FOR SPEED™ PAYBACK

4 сезон

9 сезон

Бесстыжие 9 сезон

Все сериалы

все сериалы на PB.wtf

RePack

FAR CRY 5
  

Мирный воин / Peaceful Warrior (Виктор Сальва / Victor Salva) [2006, драма, мелодрама, спорт, биография, BDRip-AVC от potroks] MVO piratbit.org

Мирный воин через торрент piratbit.org

Размер: 2.18 GB | Добавлен: 4 года 11 мес. назад | Торрент скачан:541 раз
Скачать  

10-10-2015 18:21 Мирный воин Скачать торрент  

Мирный воин / Peaceful Warrior
Год выпуска: 2006
Страна: Германия, США / Sobini Films, Inferno Distribution
Жанр: драма, мелодрама, спорт, биография
Продолжительность: 02:00:43
Перевод: Профессиональный многоголосый [ТВ3]
Субтитры: русские (SDH), украинские, английские (SDH)

Режиссер: Виктор Сальва / Victor Salva

В ролях: Скотт Мехловиц, Ник Нолти, Эми Смарт, Тим ДеКэй, Аштон Холмс, Пол Уизли, Б.Дж. Бритт, Агнес Брукнер, Том Тарантини, Беатрис Розен, Рэй Уайз

Описание: Дэн Миллмен — талантливый гимнаст колледжа, мечтающий о выступлении на Олимпийских играх. У него всё есть: награды, друзья по команде, быстрые мотоциклы, девушки и бесшабашные вечеринки. Мир Дэна переворачивается с ног на голову, когда он встречает загадочного незнакомца по имени Сократ, у которого достаточно возможностей, чтоб открыть новый мир силы и понимания. После серьёзной травмы, с помощью Сократа и эфемерной молодой девушки по имени Джой, Ден понимает, что ему много чему ещё придется научиться…



Качество: BDRip-AVC
Формат: MKV
Видео кодек: H.264
Аудио кодек: AC3
Видео: 1024x576 (16:9), 23.976 fps, 1945 Кbps, 0.138 bit/pixel
Аудио#1: 48 kHz, AC3 Dolby Digital, 2/0 (L,R) ch, 192.00 kbps | RUS
Аудио#2: 48 kHz, AC3 Dolby Digital, 3/2 (L,C,R,l,r) + LFE ch, 448.00 kbps | ENG

Релиз группы:
Автор рипа: potroks

General
Unique ID : 175754300739837161408950580930498766622 (0x84390C0C73278C598C677EBDCBA3A71E)
Complete name : Mirnyi.Voin.2006.DUAL.BDRip.x264.-HELLYWOOD.mkv
Format : Matroska
Format version : Version 4 / Version 2
File size : 2.18 GiB
Duration : 2h 0mn
Overall bit rate : 2 587 Kbps
Movie name : Peaceful Warrior (2006) - HELLYWOOD
Encoded date : UTC 2010-02-22 21:41:31
Writing application : mkvmerge v5.8.0 ('No Sleep / Pillow') built on Sep 30 2012 10:57:14
Writing library : libebml v1.3.0 + libmatroska v1.4.0

Video
ID : 1
Format : AVC
Format/Info : Advanced Video Codec
Format profile : High@L4.1
Format settings, CABAC : Yes
Format settings, ReFrames : 12 frames
Codec ID : V_MPEG4/ISO/AVC
Duration : 2h 0mn
Bit rate : 1 945 Kbps
Width : 1 024 pixels
Height : 576 pixels
Display aspect ratio : 16:9
Frame rate mode : Constant
Frame rate : 23.976 fps
Color space : YUV
Chroma subsampling : 4:2:0
Bit depth : 8 bits
Scan type : Progressive
Bits/(Pixel*Frame) : 0.138
Stream size : 1.60 GiB (73%)
Title : potroks
Writing library : x264 core 146 r2538 121396c
Encoding settings : cabac=1 / ref=12 / deblock=1:-3:-3 / analyse=0x3:0x113 / me=umh / subme=11 / psy=1 / psy_rd=0.96:0.00 / mixed_ref=1 / me_range=48 / chroma_me=1 / trellis=2 / 8x8dct=1 / cqm=0 / deadzone=21,11 / fast_pskip=0 / chroma_qp_offset=-2 / threads=9 / lookahead_threads=2 / sliced_threads=0 / nr=0 / decimate=1 / interlaced=0 / bluray_compat=0 / constrained_intra=0 / bframes=13 / b_pyramid=2 / b_adapt=2 / b_bias=0 / direct=3 / weightb=1 / open_gop=0 / weightp=2 / keyint=250 / keyint_min=23 / scenecut=40 / intra_refresh=0 / rc_lookahead=60 / rc=2pass / mbtree=0 / bitrate=1945 / ratetol=1.0 / qcomp=0.70 / qpmin=0 / qpmax=69 / qpstep=4 / cplxblur=20.0 / qblur=0.5 / vbv_maxrate=14000 / vbv_bufsize=14000 / nal_hrd=none / filler=0 / ip_ratio=1.35 / pb_ratio=1.25 / aq=1:0.80
Language : English
Default : Yes
Forced : No

Audio #1
ID : 2
Format : AC-3
Format/Info : Audio Coding 3
Mode extension : CM (complete main)
Format settings, Endianness : Big
Codec ID : A_AC3
Duration : 2h 0mn
Bit rate mode : Constant
Bit rate : 192 Kbps
Channel(s) : 2 channels
Channel positions : Front: L R
Sampling rate : 48.0 KHz
Compression mode : Lossy
Stream size : 166 MiB (7%)
Title : MVO | DD 2.0 @ 192 kbps - TV3
Language : Russian
Default : Yes
Forced : No

Audio #2
ID : 3
Format : AC-3
Format/Info : Audio Coding 3
Mode extension : CM (complete main)
Format settings, Endianness : Big
Codec ID : A_AC3
Duration : 2h 0mn
Bit rate mode : Constant
Bit rate : 448 Kbps
Channel(s) : 6 channels
Channel positions : Front: L C R, Side: L R, LFE
Sampling rate : 48.0 KHz
Compression mode : Lossy
Stream size : 387 MiB (17%)
Title : Original | DD 5.1 @ 448 kbps
Language : English
Default : No
Forced : No

Text #1
ID : 4
Format : UTF-8
Codec ID : S_TEXT/UTF8
Codec ID/Info : UTF-8 Plain Text
Title : SDH
Language : Russian
Default : No
Forced : No

Text #2
ID : 5
Format : UTF-8
Codec ID : S_TEXT/UTF8
Codec ID/Info : UTF-8 Plain Text
Language : Ukrainian
Default : No
Forced : No

Text #3
ID : 6
Format : UTF-8
Codec ID : S_TEXT/UTF8
Codec ID/Info : UTF-8 Plain Text
Title : SDH
Language : English
Default : No
Forced : No

Menu
00:00:00.000 : en:(01)00:00:00:000
00:07:27.071 : en:(02)00:07:27:071
00:17:37.681 : en:(03)00:17:37:681
00:30:30.244 : en:(04)00:30:30:244
00:44:47.684 : en:(05)00:44:47:684
00:53:03.179 : en:(06)00:53:03:179
01:03:58.458 : en:(07)01:03:58:458
01:17:11.627 : en:(08)01:17:11:627
01:27:20.859 : en:(09)01:27:20:859
01:46:32.301 : en:(10)01:46:32:301

piratbit.org



Скачать Мирный воин через торрент http://i71.fastpic.ru/big/2015/1010/22/b65ff1a5b774ac589819363024dabb22.png Скачать фильм Мирный воин через торрент бесплантно в хорошем качестве Описание: Дэн Миллмен — талантливый гимнаст колледжа, мечтающий о выступлении на Олимпийских играх. У него всё есть: награды, друзья по ... 9 10 11
Info! Золотая раздача, скачанное не засчитывается.
Торрент: Зарегистрирован [2015-10-10 18:21] · скачан: 541 раз
Статус: √ проверено
Размер: 2.18 GB
Как cкачать? Как скачать Мирный воин через торрент | qTorrent

% Раздел Тема Автор DL S | L
Релизы по Парсеру [Игры, Сериалы и Фильмы и другое...] [ 3.07 GB ] Мирный воин / Peaceful Warrior [2006 Германия BDRip-AVC] MVO + Original Eng + Sub Rus Eng sanekbest1 Скачать
1 | 0
Фильмы 2006-2008 [ 1.95 GB ] Мирный воин / Peaceful Warrior [2006 Германия биография WEB-DLRip] 2xMVO + Original dexter lex Скачать
1 | 0
Фильмы 2006-2008 [ 746 MB ] Мирный воин / Peaceful Warrior [2006 Германия Мело Спорт DVDRip] MVO телеканал ТВ3 -=Cherry=- Скачать
1 | 0

28-11-2019 20:33  

Отключить всю рекламу на сайте

10-10-2015 20:28 Мирный воин Скачать торрент  

Классный фильм, но книга ещё круче!piratbit.org



23-05-2017 15:34 Мирный воин Скачать торрент  

Конечно,книга-круче,но в рамки фильма просто невозможно вставить книгу, но Виктор Сальва смог-таки перенести в фильм,можно сказать дух книги! Спасибо за раздачу!piratbit.org



    Дорогой пользователь! Огромная просьба, поблагодарите релизера, оцените раздачу и оставьте свои комментарий, если Вы скачали Мирный воин через торрент бесплатно! Внесите свою лепту в развитие PiratBit!
    Комментировать посты могут только пользователи прошедшие не сложную регистрацию
    Показать сообщения:    

    Мирный воин через торрент
    Скачать бесплатно Мирный воин
    Мирный воин скачать торрент
    Мирный воин смотреть онлайн
    Cкачать фильм Мирный воин бесплатно
    Мирный воин скачать торрент в хорошем качестве
    Мирный воин смотреть онлайн бесплатно в хорошем качестве


    Вы не можете начинать темы
    Вы не можете отвечать на сообщения
    Вы не можете редактировать свои сообщения
    Вы не можете удалять свои сообщения
    Вы не можете голосовать в опросах
    Вы не можете прикреплять файлы к сообщениям
    Вы можете скачивать файлы