Доктор Стрэндж

Лицензия

Добыча

MVO

Дом дракона

1 сезон

Тор

Лицензия

Мэверик

Лицензия

Там, где раки поют

MVO

Властелин колец

1 сезон

Ultimate

pack

Рекомендуем

30

Repack

ВАЖНО

ВАЖНО

Ghostwire

RePack

jed

RePack

nioh2

RePack

RDR2

RePack

NEED FOR SPEED™ PAYBACK

RePack

скачать торрент

Кинопоиск HD

Острые козырьки 6 сезон

6 сезон

FAR CRY 6

RePack

скачать торрент

Лицензия

скачать торрент

MVO

1

1 сезон

скачать торрент

1 сезон

скачать торрент

Лицензия

  

Порт (Юрий Черный) [1975, СССР, приключения, военный, DVDRip-AVC от AVP Studio]

Порт через торрент piratbit.org

Размер: 745 MB | Добавлен: 6 лет 11 мес. назад | Торрент скачан:18 раз
Смотреть онлайн Порт | Скачать   

14-10-2015 09:33 Порт Скачать торрент  

Порт
Страна: СССР
Производство: Одесская киностудия

Жанр: приключения, военный
Год выпуска: 1975
Продолжительность: 01:10:21

Перевод: Не требуется
Cубтитры: нет
Оригинальная аудиодорожка: русский

Режиссер: Юрий Черный

В ролях:
Светлана Суховей, Борис Никифоров, Владимир Сичкарь, Николай Слёзка, Григоре Григориу, Виктор (Вилли) Бурхарт, Рогволд Суховерко, Виталий Розстальный, Николай Мерзликин (II), Александр Белина, Юрий Дубровин, Виктор Кондратюк, Вадим Вильский, Александр Стародуб, Виктор Полищук...
Полный список актёров

Описание:
В оккупированной фашистами Одессе действует группа партизанского подполья. Советской разведке становится известно, что фашисты собираются уничтожиь порт. Молодая разведчица Тоня Марченко устраивается туда на работу, чтобы узнать подробности плана гитлеровцев. Но шеф гестапо уже заподозрил в ней подпольщицу. Но задача - спасти одесский порт от разрушения во время отступления немцев должна быть выполнена.

Источник: DVD5 R5
Качество видео: DVDRip-AVC
Формат видео: MKV

Видео: 696->742x376 (1,973:1), 25 fps, H264 ~ 1286 kbps avg, 0.197 bit/pixel
Аудио: 48 kHz, Dolby Digital AC3 2.0, 192 kbps

Раздача от:
Общее
Полное имя : Port.1975.DVDRip-AVC_[New-team]_by_AVP_Studio.mkv
Формат : Matroska
Версия формата : Version 2
Размер файла : 745 Мбайт
Продолжительность : 1 ч. 10 м.
Общий поток : 1480 Кбит/сек
Дата кодирования : UTC 2015-10-12 10:22:18
Программа кодирования : mkvmerge v6.1.0 ('Old Devil') built on Mar 4 2013 09:10:42
Библиотека кодирования : libebml v1.3.0 + libmatroska v1.4.0

Видео
Идентификатор : 1
Формат : AVC
Формат/Информация : Advanced Video Codec
Профиль формата : High@L4.1
Параметр CABAC формата : Да
Параметр ReFrames формата : 10 кадров
Идентификатор кодека : V_MPEG4/ISO/AVC
Продолжительность : 1 ч. 10 м.
Битрейт : 1286 Кбит/сек
Ширина : 696 пикселей
Высота : 376 пикселей
Соотношение сторон : 1,973
Соотношение сторон в оригинале : 1,974
Режим частоты кадров : Постоянный
Частота кадров : 25,000 кадров/сек
Цветовое пространство : YUV
Субдискретизация насыщенности : 4:2:0
Битовая глубина : 8 бит
Тип развёртки : Прогрессивная
Бит/(Пиксели*Кадры) : 0.197
Размер потока : 633 Мбайт (85%)
Библиотека кодирования : x264 core 148 r2597 e86f3a1
Настройки программы : cabac=1 / ref=10 / deblock=1:-2:-1 / analyse=0x3:0x113 / me=umh / subme=10 / psy=1 / psy_rd=1.00:0.00 / mixed_ref=1 / me_range=32 / chroma_me=1 / trellis=2 / 8x8dct=1 / cqm=0 / deadzone=21,11 / fast_pskip=1 / chroma_qp_offset=-2 / threads=6 / lookahead_threads=1 / sliced_threads=0 / nr=0 / decimate=0 / interlaced=0 / bluray_compat=0 / constrained_intra=0 / bframes=8 / b_pyramid=2 / b_adapt=2 / b_bias=0 / direct=3 / weightb=1 / open_gop=0 / weightp=2 / keyint=250 / keyint_min=25 / scenecut=40 / intra_refresh=0 / rc=2pass / mbtree=0 / bitrate=1286 / ratetol=1.0 / qcomp=0.60 / qpmin=0 / qpmax=69 / qpstep=4 / cplxblur=20.0 / qblur=0.5 / ip_ratio=1.40 / pb_ratio=1.30 / aq=1:1.00
Default : Да
Forced : Нет

Аудио
Идентификатор : 2
Формат : AC-3
Формат/Информация : Audio Coding 3
Расширение режима : CM (complete main)
Параметр Endianness формата : Big
Идентификатор кодека : A_AC3
Продолжительность : 1 ч. 10 м.
Вид битрейта : Постоянный
Битрейт : 192 Кбит/сек
Каналы : 2 канала
Расположение каналов : Front: L R
Частота : 48,0 КГц
Метод сжатия : С потерями
Размер потока : 96,6 Мбайт (13%)
Default : Да
Forced : Нет



Скачать Порт через торрент http://s019.radikal.ru/i621/1510/56/3bd84c9d353e.png Скачать, смотреть онлайн Порт бесплантно в хорошем качестве Описание:В оккупированной фашистами Одессе действует группа партизанского подполья. Советской разведке становится известно, что фашисты ... 10 10 5
Info! Золотая раздача, скачанное не засчитывается.
Торрент: Зарегистрирован [2015-10-14 09:33] · скачан: 18 раз
Статус: √ проверено
Размер: 745 MB
Как cкачать? Как скачать Порт через торрент | UTorrent

% Раздел Тема Автор DL S | L
Кино СССР [ 745 MB ] Порт | | DVDRip от AVP Studio AVP Studio Скачать
1 | 0

28-11-2019 20:33  

Отключить вcю реклaмy на сайте

14-10-2015 12:47 Порт Скачать торрент  

Актуальный фильм. Спасибо.



    Дорогой пользователь! Огромная просьба, поблагодарите релизера, оцените раздачу и оставьте свои комментарий, если Вы скачали Порт через торрент бесплатно!!
    Комментировать посты могут только пользователи прошедшие не сложную регистрацию
    Показать сообщения:    


    Порт через торрент
    Скачать бесплатно Порт
    Порт скачать торрент
    Порт смотреть онлайн
    Cкачать фильм Порт бесплатно
    Порт скачать торрент в хорошем качестве
    Порт смотреть онлайн бесплатно в хорошем качестве
    Вы не можете начинать темы
    Вы не можете отвечать на сообщения
    Вы не можете редактировать свои сообщения
    Вы не можете удалять свои сообщения
    Вы не можете голосовать в опросах
    Вы не можете прикреплять файлы к сообщениям
    Вы можете скачивать файлы