Присоединяйтесь к нам в Telegram!, здесь всегда актуальный адрес сайта, оперативная поддержка и многое другое!!

>

5.9

iTunes

7.4

iTunes

9.4

1 сезон

1

7.4

2 сезон

7.2

iTunes

7.3

1 сезон

13

6.1

iTunes

8.3

Пиратка

30

ULTIMATE

pack

9.9

Лицензия

ВАЖНО

ИГРА 18+

pack

7.3

RePack

MK11

7.7

RePack

jed

7.8

RePack

fifa19

8.5

RePack

RDR2

RePack

NEED FOR SPEED™ PAYBACK

5 сезон

9 сезон

Бесстыжие 9 сезон

Все сериалы

все сериалы на PB.wtf

RePack

FAR CRY 5

Anonymous, добрый вечер, мы катастрофически не успеваем собрать деньги на оплату серверов, помогите нам пожалуйста 5,10,15р., для нас важна любая помощь . В качестве благодарности мы отключим Вам всю рекламу на сайте (укажите свой ник в строку Ваше имя)!

×
  
Magnet ссылка

Партизан / Partisan (Эриель Клейман) [2015, триллер, драма, WEB-DLRip] Любительский (одноголосый) [Raim] piratbit.org

Партизан через торрент piratbit.org

Размер: 1.36 GB | Добавлен: 6 лет 1 мес. назад | Торрент скачан:160 раз
Смотреть онлайн Партизан | Скачать    Ребята, помогите собрать деньги на оплату серверов!!!

16-10-2015 13:47 Партизан Скачать торрент  

Партизан / Partisan

  • Год выхода: 2015
  • Жанр: триллер, драма

  • Страна: Австралия
  • Продолжительность: 01:38:03
  • Перевод: Любительский (одноголосый) [Raim]
  • Режиссер: Эриель Клейман
  • В ролях:

    Венсан Кассель (Gregori), Найджел Барбер (Karaoke Detective), Jeremy Chabriel (Alexander), Florence Mezzara (Susanna), Тимоти Стайлз (Gary - «The Hardest Thing To Do»), Sapidah Kian (Maria), Сосина Вогаху (Penelope), Natalia Gorbacheva (Sylvia), Katalin Hegedus (Magdalena), Csenge Birloni (Ruth), Wietse Cocu (Felix), Alexander Dahlberg (Nicholas)


  • Речь в фильме пойдет о деспотичном отце семейства, который растит своих детей в изоляции от окружающего мира и прививает им человеконенавистническое восприятие общества. Повествование будет вестись от имени 11-летнего мальчика, осуждающего радикальные взгляды на жизнь своего отца.

  • Качество: WEB-DLRip
  • Формат: AVI
  • Видео кодек: XviD
  • Аудио кодек: AC3
  • Видео: XviD, 720x304 (2.35:1), 1512 kbps, 23,976 fps, 0,288 bpp
  • Аудио: русский / AC3 / 5.1 / 48 kHz / 384 kbps / 16 bit

    Код:

    General
    Complete name                            : H:\paPT13aH.2015.L1.WEBDLRip.1400Mb.avi
    Format                                   : AVI
    Format/Info                              : Audio Video Interleave
    File size                                : 1.36 GiB
    Duration                                 : 1h 38mn
    Overall bit rate                         : 1 984 Kbps
    Writing application                      : VirtualDubMod 1.5.10.2 (build 2540/release)
    Writing library                          : VirtualDubMod build 2540/release

    Video
    ID                                       : 0
    Format                                   : MPEG-4 Visual
    Format profile                           : Advanced Simple@L5
    Format settings, BVOP                    : 2
    Format settings, QPel                    : No
    Format settings, GMC                     : No warppoints
    Format settings, Matrix                  : Default (H.263)
    Muxing mode                              : Packed bitstream
    Codec ID                                 : XVID
    Codec ID/Hint                            : XviD
    Duration                                 : 1h 38mn
    Bit rate                                 : 1 512 Kbps
    Width                                    : 720 pixels
    Height                                   : 304 pixels
    Display aspect ratio                     : 2.35:1
    Frame rate                               : 23.976 fps
    Color space                              : YUV
    Chroma subsampling                       : 4:2:0
    Bit depth                                : 8 bits
    Scan type                                : Progressive
    Compression mode                         : Lossy
    Bits/(Pixel*Frame)                       : 0.288
    Stream size                              : 1.04 GiB (76%)
    Writing library                          : XviD 66

    Audio
    ID                                       : 1
    Format                                   : AC-3
    Format/Info                              : Audio Coding 3
    Mode extension                           : CM (complete main)
    Codec ID                                 : 2000
    Duration                                 : 1h 38mn
    Bit rate mode                            : Constant
    Bit rate                                 : 384 Kbps
    Channel(s)                               : 6 channels
    Channel positions                        : Front: L C R, Side: L R, LFE
    Sampling rate                            : 48.0 KHz
    Bit depth                                : 16 bits
    Compression mode                         : Lossy
    Stream size                              : 269 MiB (19%)
    Alignment                                : Split accross interleaves

    Скриншоты:


    © Оформление by -Lexx- piratbit.org



  • Скачать Партизан через торрент https://pic1.kartinco.top/images/61/stazu.jpg Скачать, смотреть онлайн Партизан бесплантно в хорошем качестве qw.png Речь в фильме пойдет о деспотичном отце семейства, который растит своих детей в изоляции от окружающего мира и прививает им ... 10 10 10
    Info! Золотая раздача, скачанное не засчитывается.
    Торрент: Зарегистрирован [2015-10-16 13:47] · скачан: 160 раз
    Статус: T временная
    Размер: 1.36 GB
    Как cкачать? Как скачать Партизан через торрент | UTorrent

    % Раздел Тема Автор DL S | L
    Фильмы [HD 720p, 1080p] (Звук Cam, VO, DVO) [ 6.87 GB ] Партизан / Partisan [2015 BDRip 1080p] Любительский [Р. Закиров] -Lexx- Скачать
    1 | 0
    Документальные фильмы и телепередачи [ 557 MB ] Кибер-партизаны: хакеры пираты и тайные войны / Cyber-partisans: hackers pirates and secret war [2008 Документальный SATRip VO] Azot258 Скачать
    1 | 0

    28-11-2019 20:33  

    Отключить всю рекламу на сайте

    19-10-2015 19:12 Партизан Скачать торрент  

    Очень нравится этот актер...(Венсан Кассель)
    спс -Lexx-,piratbit.org
    K-Lexx- писал(а):

    Приятного просмотра.



      Дорогой пользователь! Огромная просьба, поблагодарите релизера, оцените раздачу и оставьте свои комментарий, если Вы скачали Партизан через торрент бесплатно!
      Комментировать посты могут только пользователи прошедшие не сложную регистрацию
      Показать сообщения:    

      Партизан через торрент
      Скачать бесплатно Партизан
      Партизан скачать торрент
      Партизан смотреть онлайн
      Cкачать фильм Партизан бесплатно
      Партизан скачать торрент в хорошем качестве
      Партизан смотреть онлайн бесплатно в хорошем качестве


      Вы не можете начинать темы
      Вы не можете отвечать на сообщения
      Вы не можете редактировать свои сообщения
      Вы не можете удалять свои сообщения
      Вы не можете голосовать в опросах
      Вы не можете прикреплять файлы к сообщениям
      Вы можете скачивать файлы