Присоединяйтесь к нам в Telegram!, здесь всегда актуальный адрес сайта, оперативная поддержка и многое другое!!

>

5.9

iTunes

7.4

iTunes

9.4

1 сезон

1

7.4

2 сезон

7.2

iTunes

7.3

1 сезон

13

6.1

iTunes

8.3

GOG

30

ULTIMATE

pack

9.9

Лицензия

ВАЖНО

ИГРА 18+

pack

7.3

RePack

MK11

7.7

RePack

jed

7.8

RePack

fifa19

8.5

RePack

RDR2

RePack

NEED FOR SPEED™ PAYBACK

5 сезон

9 сезон

Бесстыжие 9 сезон

Все сериалы

все сериалы на PB.wtf

RePack

FAR CRY 5

Anonymous, добрый день, мы катастрофически не успеваем собрать деньги на оплату серверов, помогите нам пожалуйста 5,10,15р., для нас важна любая помощь . В качестве благодарности мы отключим Вам всю рекламу на сайте (укажите свой ник в строку Ваше имя)!

×
  
Magnet ссылка

Бесконечность / Infini (Шейн Эббесс) [2015, ужасы, фантастика, триллер, HDRip] Любительский (двухголосый) [RAIM & NASTR] piratbit.org

Бесконечность через торрент piratbit.org

Размер: 1.37 GB | Добавлен: 6 лет 1 мес. назад | Торрент скачан:412 раз
Смотреть онлайн Бесконечность | Скачать    Ребята, помогите собрать деньги на оплату серверов!!!

16-10-2015 16:17 Бесконечность Скачать торрент  

Бесконечность / Infini

  • Год выхода: 2015
  • Жанр: ужасы, фантастика, триллер

  • Страна: Австралия
  • Продолжительность: 01:50:35
  • Перевод: Любительский (двухголосый) [RAIM & NASTR]
  • Режиссер: Шейн Эббесс
  • В ролях:

    Дэниэл МакФерсон (Whit Carmichael), Грэйс Хуанг (Claire Grenich), Люк Хемсворт (Charlie Kent), Брен Фостер (Morgan Jacklar), Люк Форд (Chester Huntington), Дуэйн Стивенсон (Rex Mannings), Луиса Миньоне (Philipa Boxen), Тесс Хобрич (Lisa Carmichael), Гарри Павлидис (Harris Menzies), Кевин Коуплэнд (Seet Johanson), Энди Родореда (Sefton Norick), Ричард Хаггетт (Montoli)


  • Элитный спасательный отряд переброшен на удаленный горнодобывающий комплекс, чтобы спасти Уита Кармайкла, единственного выжившего после биологической катастрофы.

  • Качество: HDRip
  • Формат: AVI
  • Видео кодек: XviD
  • Аудио кодек: AC3
  • Видео: XviD, 720x304 (2.35:1), 1474 kbps, 24 fps, 0,281 bpp
  • Аудио: русский / AC3 / 2.0 / 48 kHz / 224 kbps / 16 bit

    Код:

    General
    Complete name                            : H:\Beskonechnost.2015.L2.HDRip.1400MB.avi
    Format                                   : AVI
    Format/Info                              : Audio Video Interleave
    File size                                : 1.37 GiB
    Duration                                 : 1h 50mn
    Overall bit rate                         : 1 778 Kbps
    Writing application                      : VirtualDubMod 1.5.10.2 (build 2540/release)
    Writing library                          : VirtualDubMod build 2540/release

    Video
    ID                                       : 0
    Format                                   : MPEG-4 Visual
    Format profile                           : Advanced Simple@L5
    Format settings, BVOP                    : 2
    Format settings, QPel                    : No
    Format settings, GMC                     : No warppoints
    Format settings, Matrix                  : Default (MPEG)
    Codec ID                                 : XVID
    Codec ID/Hint                            : XviD
    Duration                                 : 1h 50mn
    Bit rate                                 : 1 475 Kbps
    Width                                    : 720 pixels
    Height                                   : 304 pixels
    Display aspect ratio                     : 2.35:1
    Frame rate                               : 24.000 fps
    Color space                              : YUV
    Chroma subsampling                       : 4:2:0
    Bit depth                                : 8 bits
    Scan type                                : Progressive
    Compression mode                         : Lossy
    Bits/(Pixel*Frame)                       : 0.281
    Stream size                              : 1.14 GiB (83%)
    Writing library                          : XviD 1.2.1 (UTC 2008-12-04)

    Audio
    ID                                       : 1
    Format                                   : AC-3
    Format/Info                              : Audio Coding 3
    Mode extension                           : CM (complete main)
    Codec ID                                 : 2000
    Duration                                 : 1h 50mn
    Bit rate mode                            : Constant
    Bit rate                                 : 224 Kbps
    Channel(s)                               : 2 channels
    Channel positions                        : Front: L R
    Sampling rate                            : 48.0 KHz
    Bit depth                                : 16 bits
    Compression mode                         : Lossy
    Stream size                              : 177 MiB (13%)
    Alignment                                : Split accross interleaves

    Скриншоты:


    © Оформление by -Lexx- piratbit.org



  • Скачать Бесконечность через торрент https://pic1.kartinco.top/images/61/stazu.jpg Скачать, смотреть онлайн Бесконечность бесплантно в хорошем качестве qw.png Элитный спасательный отряд переброшен на удаленный горнодобывающий комплекс, чтобы спасти Уита Кармайкла, единственного выжившего ... 9.8 10 18
    Info! Золотая раздача, скачанное не засчитывается.
    Торрент: Зарегистрирован [2015-10-16 16:17] · скачан: 412 раз
    Статус: T временная
    Размер: 1.37 GB
    Как cкачать? Как скачать Бесконечность через торрент | UTorrent

    % Раздел Тема Автор DL S | L
    Фильмы (HD 720p, 1080p) (48-60 fps) [ 5.8 GB ] Мстители: Война бесконечности / Avengers: Infinity War [2018 WEB-DLRip 720p / 60 FPS ] от R.G. HD-Films slaventi-69 Скачать
    2 | 0
    Фильмы (WEB-DL 720p, 1080p) [ 6.68 GB ] Бесконечность / Infinite [2021 WEB-DL 1080p] DUB [КиноПоиск HD] bober100 Скачать
    23 | 0
    Фильмы 2021 [DVDrip, WEB-DLRip, HDrip] (DUB, MVO) [ 1.46 GB ] Бесконечность / Infinite [2021 WEB-DLRip] DUB [КиноПоиск HD] bober100 Скачать
    9 | 0
    Фильмы 2021 [DVDrip, WEB-DLRip, HDrip] (DUB, MVO) [ 1.46 GB ] Бесконечность / Infinite [2021 WEB-DLRip] killermax2013 Скачать
    13 | 1
    Фильмы 2021 [DVDrip, WEB-DLRip, HDrip] (DUB, MVO) [ 716 MB ] Бесконечность / Infinite [2021 WEB-DLRip ""] coc900 Скачать
    2 | 0
    Фильмы 2021 [DVDrip, WEB-DLRip, HDrip] (DUB, MVO) [ 1.46 GB ] Бесконечность / Infinite [2021 WEB-DLRip] - [IVI] Twi7ter Скачать
    234 | 7
    Фильмы (WEB-DL 720p, 1080p) [ 6.63 GB ] Бесконечность / Infinite [2021 WEB-DL 1080p] MVO [HDRezka Studio] bober100 Скачать
    10 | 0

    28-11-2019 20:33  

    Отключить всю рекламу на сайте

    16-10-2015 17:13 Бесконечность Скачать торрент  

    ну скрины не то что бы пугающие, надеюсь типо Пандорума (на который как я считаю оценки завышеные), надеюсь на 5.5piratbit.org



    20-10-2015 00:55 Бесконечность Скачать торрент  

    По описанию DOOM почти :) Заценим, Спасибо.piratbit.org



    20-10-2015 20:08 Бесконечность Скачать торрент  

    КАЛ адовыйpiratbit.org



    29-10-2015 18:16 Бесконечность Скачать торрент  

    фильм, просмотр для тдегенератов.забаньте меня.piratbit.org



      Дорогой пользователь! Огромная просьба, поблагодарите релизера, оцените раздачу и оставьте свои комментарий, если Вы скачали Бесконечность через торрент бесплатно!
      Комментировать посты могут только пользователи прошедшие не сложную регистрацию
      Показать сообщения:    

      Бесконечность через торрент
      Скачать бесплатно Бесконечность
      Бесконечность скачать торрент
      Бесконечность смотреть онлайн
      Cкачать фильм Бесконечность бесплатно
      Бесконечность скачать торрент в хорошем качестве
      Бесконечность смотреть онлайн бесплатно в хорошем качестве


      Вы не можете начинать темы
      Вы не можете отвечать на сообщения
      Вы не можете редактировать свои сообщения
      Вы не можете удалять свои сообщения
      Вы не можете голосовать в опросах
      Вы не можете прикреплять файлы к сообщениям
      Вы можете скачивать файлы