Лицензия

MVO

1

1 сезон

Лицензия

Лицензия

13

MVO

1 сезон

Deluxe Edition

pack

Рекомендуем

30

Repack

ВАЖНО

ВАЖНО

Ghostwire

RePack

jed

RePack

fifa19

RePack

RDR2

RePack

NEED FOR SPEED™ PAYBACK

RePack

Кинопоиск HD

 Острые козырьки 6 сезон

6 сезон

FAR CRY 6

RePack

Лицензия

MVO

1

1 сезон

1 сезон

Лицензия

  

Хочу верить (Николай Мащенко) [1965, СССР, военный фильм, драма, экранизация, DVDRip от AVP Studio]

Хочу верить через торрент piratbit.org

Размер: 745 MB | Добавлен: 6 лет 11 мес. назад | Торрент скачан:2 раза
Смотреть онлайн Хочу верить | Скачать   

18-10-2015 08:35 Хочу верить Скачать торрент  

Хочу верить
Страна: СССР
Производство: Киностудия им. А. Довженко

Жанр: военный фильм, драма, экранизация
Год выпуска: 1965
Продолжительность: 01:17:51

Перевод: Не требуется
Cубтитры: нет
Оригинальная аудиодорожка: русский

Режиссер: Николай Мащенко

В ролях:
Алексей Сафонов, Екатерина Крупенникова, Юрий Лавров, Никола Попович, Анатолий Иванов (VIII), Михаил Мансуров, Анна Николаева, Мария Самойлова, Алла Ледовая, Людмила Глазова, Уно Лойт, Виктор Чекмарёв, Игорь Ледогоров, Пётр Вескляров...
Полный список актёров

Описание:
По мотивам одноименной повести И. Голосовского.
Агент подпольщиков Днепропетровска Людмила Зайковская, пользуясь расположением немецких офицеров к себе, узнавала о тайных операциях «третьего рейха». В 1942 году фашисты разоблачили Людмилу и ее боевых товарищей, но после войны собранные данные оказались против Людмилы, и ее имя было запятнано. По прошествии 20 лет, полагаясь на ошибочные архивные данные, молодой журналист Алексей Трофименко (Алексей Сафонов) пишет статью о предательстве Людмилы. Но тут обнаруживаются свидетели, утверждающие о невиновности Зайковской. Алексей старается узнать правду и восстановить славное имя отважной женщины.

Источник: DVD5 R5
Качество видео: DVDRip
Формат видео: AVI

Видео: 640x480 (4:3), 25 fps, XviD ~ 1201 kbps avg, 0.156 bit/pixel
Аудио: 48 kHz, MP3 2.0, 128 kbps

Раздача от:
Общее
Полное имя : Hochu.verit.1965.DVDRip-745_[New-team]_by_AVP_Studio.avi
Формат : AVI
Формат/Информация : Audio Video Interleave
Размер файла : 745 Мбайт
Продолжительность : 1 ч. 17 м.
Общий поток : 1339 Кбит/сек
Программа кодирования : VirtualDubMod 1.5.10.3 | www.virtualdub-fr.org || (build 2550/release)
Библиотека кодирования : VirtualDubMod build 2550/release

Видео
Идентификатор : 0
Формат : MPEG-4 Visual
Профиль формата : Advanced Simple@L5
Параметр BVOP формата : 1
Параметр QPel формата : Нет
Параметр GMC формата : Без точки перехода
Параметр матрицы формата : Выборочная
Идентификатор кодека : XVID
Идентификатор кодека/Подсказка : XviD
Продолжительность : 1 ч. 17 м.
Битрейт : 1201 Кбит/сек
Ширина : 640 пикселей
Высота : 480 пикселей
Соотношение сторон : 4:3
Частота кадров : 25,000 кадров/сек
Цветовое пространство : YUV
Субдискретизация насыщенности : 4:2:0
Битовая глубина : 8 бит
Тип развёртки : Прогрессивная
Метод сжатия : С потерями
Бит/(Пиксели*Кадры) : 0.156
Размер потока : 669 Мбайт (90%)
Библиотека кодирования : XviD 73

Аудио
Идентификатор : 1
Формат : MPEG Audio
Версия формата : Version 1
Профиль формата : Layer 3
Идентификатор кодека : 55
Идентификатор кодека/Подсказка : MP3
Продолжительность : 1 ч. 17 м.
Вид битрейта : Постоянный
Битрейт : 128 Кбит/сек
Каналы : 2 канала
Частота : 48,0 КГц
Метод сжатия : С потерями
Размер потока : 71,3 Мбайт (10%)
Выравнивание : Соединение по промежуткам
Продолжительность промежутка : 40 мс. (1,00 видеокадр)
Время предзагрузки промежутка : 504 мс.
Библиотека кодирования : LAME3.99r
Настройки программы : -m s -V 4 -q 2 -lowpass 17 -b 128



Скачать Хочу верить через торрент http://s019.radikal.ru/i602/1510/c4/2374fb508b71.png Скачать, смотреть онлайн Хочу верить бесплантно в хорошем качестве Описание:По мотивам одноименной повести И. Голосовского.Агент подпольщиков Днепропетровска Людмила Зайковская, пользуясь расположением ... 10 10 2
Info! Золотая раздача, скачанное не засчитывается.
Торрент: Зарегистрирован [2015-10-18 08:35] · скачан: 2 раз
Статус: √ проверено
Размер: 745 MB
Как cкачать? Как скачать Хочу верить через торрент | UTorrent

% Раздел Тема Автор DL S | L
Кино СССР [ 1.09 GB ] Хочу верить | | DVDRip-AVC от AVP Studio AVP Studio Скачать
1 | 0
Кино СССР [ 1.09 GB ] Хочу верить | | DVDRip от AVP Studio AVP Studio Скачать
1 | 0

28-11-2019 20:33  

Отключить вcю реклaмy на сайте

    Дорогой пользователь! Огромная просьба, поблагодарите релизера, оцените раздачу и оставьте свои комментарий, если Вы скачали Хочу верить через торрент бесплатно!!
    Комментировать посты могут только пользователи прошедшие не сложную регистрацию
    Показать сообщения:    


    Хочу верить через торрент
    Скачать бесплатно Хочу верить
    Хочу верить скачать торрент
    Хочу верить смотреть онлайн
    Cкачать фильм Хочу верить бесплатно
    Хочу верить скачать торрент в хорошем качестве
    Хочу верить смотреть онлайн бесплатно в хорошем качестве
    Вы не можете начинать темы
    Вы не можете отвечать на сообщения
    Вы не можете редактировать свои сообщения
    Вы не можете удалять свои сообщения
    Вы не можете голосовать в опросах
    Вы не можете прикреплять файлы к сообщениям
    Вы можете скачивать файлы