Доктор Стрэндж

Лицензия

Добыча

MVO

Дом дракона

1 сезон

Тор

Лицензия

Мэверик

Лицензия

Там, где раки поют

MVO

Властелин колец

1 сезон

Ultimate

pack

Рекомендуем

30

Repack

ВАЖНО

ВАЖНО

Ghostwire

RePack

jed

RePack

nioh2

RePack

RDR2

RePack

NEED FOR SPEED™ PAYBACK

RePack

скачать торрент

Кинопоиск HD

Острые козырьки 6 сезон

6 сезон

FAR CRY 6

RePack

скачать торрент

Лицензия

скачать торрент

MVO

1

1 сезон

скачать торрент

1 сезон

скачать торрент

Лицензия

  

Багряные берега (Ярослав Лупий) [1979, CCCP, военный, SATRip от AVP Studio]

Багряные берега через торрент piratbit.org

Размер: 745 MB | Добавлен: 6 лет 11 мес. назад | Торрент скачан:11 раз
Смотреть онлайн Багряные берега | Скачать   

18-10-2015 08:39 Багряные берега Скачать торрент  

Багряные берега
Страна: СССР
Производство: Одесская киностудия

Жанр: военный
Год выпуска: 1979
Продолжительность: 01:20:48

Перевод: Не требуется
Cубтитры: нет
Оригинальная аудиодорожка: русский

Режиссер: Ярослав Лупий

В ролях:
Владимир Алексеенко, Евгений Стежко, Андрей Ведерников, Тамара Дегтярёва, Иван Гаврилюк, Виктор Мирошниченко, Борис Миронюк, Марина Проскурякова, Борис Сабуров, Виталий Матвеев, Виктор Щербаков...
Полный список актёров

Описание:
Западная Украина, 1945 год. Отвоевавшие фронтовики возвращаются в села, чтобы строить мирную жизнь, восстанавливать хозяйство, но вокруг бесчинствуют бандеровцы, нарушая покой мирных жителей, уставших от войны. В село Люботин приезжает группа мостостроителей, чтобы построить здесь новый мост...

Источник: DVB
Качество видео: SATRip
Формат видео: AVI

Видео: 640x480 (4:3), 25 fps, XviD ~ 1152 kbps avg, 0.150 bit/pixel
Аудио: 48 kHz, MP3 2.0, 128 kbps

Раздача от:
Общее
Полное имя : Bagryanye.berega.1979.SATRip-745_[New-team]_by_AVP_Studio.avi
Формат : AVI
Формат/Информация : Audio Video Interleave
Размер файла : 745 Мбайт
Продолжительность : 1 ч. 20 м.
Общий поток : 1290 Кбит/сек
Программа кодирования : VirtualDubMod 1.5.10.3 | www.virtualdub-fr.org || (build 2550/release)
Библиотека кодирования : VirtualDubMod build 2550/release

Видео
Идентификатор : 0
Формат : MPEG-4 Visual
Профиль формата : Advanced Simple@L5
Параметр BVOP формата : 1
Параметр QPel формата : Нет
Параметр GMC формата : Без точки перехода
Параметр матрицы формата : Выборочная
Идентификатор кодека : XVID
Идентификатор кодека/Подсказка : XviD
Продолжительность : 1 ч. 20 м.
Битрейт : 1152 Кбит/сек
Ширина : 640 пикселей
Высота : 480 пикселей
Соотношение сторон : 4:3
Частота кадров : 25,000 кадров/сек
Цветовое пространство : YUV
Субдискретизация насыщенности : 4:2:0
Битовая глубина : 8 бит
Тип развёртки : Прогрессивная
Метод сжатия : С потерями
Бит/(Пиксели*Кадры) : 0.150
Размер потока : 666 Мбайт (89%)
Библиотека кодирования : XviD 73

Аудио
Идентификатор : 1
Формат : MPEG Audio
Версия формата : Version 1
Профиль формата : Layer 3
Идентификатор кодека : 55
Идентификатор кодека/Подсказка : MP3
Продолжительность : 1 ч. 20 м.
Вид битрейта : Постоянный
Битрейт : 128 Кбит/сек
Каналы : 2 канала
Частота : 48,0 КГц
Метод сжатия : С потерями
Размер потока : 74,0 Мбайт (10%)
Выравнивание : Соединение по промежуткам
Продолжительность промежутка : 40 мс. (1,00 видеокадр)
Время предзагрузки промежутка : 504 мс.
Библиотека кодирования : LAME3.99r
Настройки программы : -m s -V 4 -q 2 -lowpass 17 -b 128



Скачать Багряные берега через торрент http://s020.radikal.ru/i722/1510/15/798fcf2fd86c.png Скачать, смотреть онлайн Багряные берега бесплантно в хорошем качестве Описание:Западная Украина, 1945 год. Отвоевавшие фронтовики возвращаются в села, чтобы строить мирную жизнь, восстанавливать хозяйство, но ... 10 10 1
Info! Золотая раздача, скачанное не засчитывается.
Торрент: Зарегистрирован [2015-10-18 08:39] · скачан: 11 раз
Статус: √ проверено
Размер: 745 MB
Как cкачать? Как скачать Багряные берега через торрент | UTorrent

% Раздел Тема Автор DL S | L
Кино СССР [ 1.09 GB ] Багряные берега | | SATRip-AVC от AVP Studio AVP Studio Скачать
1 | 0
Кино СССР [ 1.09 GB ] Багряные берега | | SATRip от AVP Studio AVP Studio Скачать
1 | 0

28-11-2019 20:33  

Отключить вcю реклaмy на сайте

    Дорогой пользователь! Огромная просьба, поблагодарите релизера, оцените раздачу и оставьте свои комментарий, если Вы скачали Багряные берега через торрент бесплатно!!
    Комментировать посты могут только пользователи прошедшие не сложную регистрацию
    Показать сообщения:    


    Багряные берега через торрент
    Скачать бесплатно Багряные берега
    Багряные берега скачать торрент
    Багряные берега смотреть онлайн
    Cкачать фильм Багряные берега бесплатно
    Багряные берега скачать торрент в хорошем качестве
    Багряные берега смотреть онлайн бесплатно в хорошем качестве
    Вы не можете начинать темы
    Вы не можете отвечать на сообщения
    Вы не можете редактировать свои сообщения
    Вы не можете удалять свои сообщения
    Вы не можете голосовать в опросах
    Вы не можете прикреплять файлы к сообщениям
    Вы можете скачивать файлы