Лицензия

MVO

1

1 сезон

Лицензия

Лицензия

13

MVO

1 сезон

Deluxe Edition

pack

Рекомендуем

30

Repack

ВАЖНО

ВАЖНО

Ghostwire

RePack

jed

RePack

fifa19

RePack

RDR2

RePack

NEED FOR SPEED™ PAYBACK

RePack

Кинопоиск HD

 Острые козырьки 6 сезон

6 сезон

FAR CRY 6

RePack

Лицензия

MVO

1

1 сезон

1 сезон

Лицензия

  

Снайперы (Болотбек Шамшиев) [1985, СССР, драма, военный, VHSRip-AVC от AVP Studio]

Снайперы через торрент piratbit.org

Размер: 1.09 GB | Добавлен: 6 лет 11 мес. назад | Торрент скачан:97 раз
Смотреть онлайн Снайперы | Скачать   

19-10-2015 09:48 Снайперы Скачать торрент  

Снайперы
Страна: СССР
Производство: Казахфильм

Жанр: драма, военный
Год выпуска: 1985
Продолжительность: 01:34:17

Перевод: Не требуется
Cубтитры: нет
Оригинальная аудиодорожка: русский

Режиссер: Болотбек Шамшиев

В ролях:
Айтурган Темирова, Марина Яковлева, Вера Глаголева, Елена Мельникова, Николай Скоробогатов, Касым Жакибаев, Юозас Киселюс, Эмиль Борончиев, Михаил Крылов (Шулейкин), Георгий Мартиросян, Джейхун (Джейк) Мирзоев, Татьяна Конюхова, Екатерина Горяева, Светлана Евстратова, Оразхан Кенебаев, Байкенже (Байкал) Бельбаев, Александр Беспалый, Анатолий Чарноцкий...
Полный список актёров

Описание:
Фильм посвящен Герою Советского Союза Алие Молдагуловой, погибшей в боях за освобождение Ленинграда.

Источник: VHS
Качество видео: VHSRip-AVC
Формат видео: MKV

Видео: 704x496 (1,419:1), 25 fps, H264 ~ 1523 kbps avg, 0.174 bit/pixel
Аудио: 48 kHz, Dolby Digital AC3 2.0, 128 kbps

Раздача от:
Общее
Полное имя : Snaypery.1982.VHSRip-AVC_[New-team]_by_AVP_Studio.mkv
Формат : Matroska
Версия формата : Version 2
Размер файла : 1,09 Гбайт
Продолжительность : 1 ч. 34 м.
Общий поток : 1653 Кбит/сек
Дата кодирования : UTC 2015-10-18 16:39:07
Программа кодирования : mkvmerge v6.1.0 ('Old Devil') built on Mar 4 2013 09:10:42
Библиотека кодирования : libebml v1.3.0 + libmatroska v1.4.0

Видео
Идентификатор : 1
Формат : AVC
Формат/Информация : Advanced Video Codec
Профиль формата : High@L4.1
Параметр CABAC формата : Да
Параметр ReFrames формата : 10 кадров
Идентификатор кодека : V_MPEG4/ISO/AVC
Продолжительность : 1 ч. 34 м.
Битрейт : 1523 Кбит/сек
Ширина : 704 пикселя
Высота : 496 пикселей
Соотношение сторон : 1,419
Режим частоты кадров : Постоянный
Частота кадров : 25,000 кадров/сек
Цветовое пространство : YUV
Субдискретизация насыщенности : 4:2:0
Битовая глубина : 8 бит
Тип развёртки : Прогрессивная
Бит/(Пиксели*Кадры) : 0.174
Размер потока : 1006 Мбайт (90%)
Библиотека кодирования : x264 core 148 r2597 e86f3a1
Настройки программы : cabac=1 / ref=10 / deblock=1:-2:-1 / analyse=0x3:0x113 / me=umh / subme=10 / psy=1 / psy_rd=1.00:0.00 / mixed_ref=1 / me_range=32 / chroma_me=1 / trellis=2 / 8x8dct=1 / cqm=0 / deadzone=21,11 / fast_pskip=1 / chroma_qp_offset=-2 / threads=6 / lookahead_threads=1 / sliced_threads=0 / nr=0 / decimate=0 / interlaced=0 / bluray_compat=0 / constrained_intra=0 / bframes=8 / b_pyramid=2 / b_adapt=2 / b_bias=0 / direct=3 / weightb=1 / open_gop=0 / weightp=2 / keyint=250 / keyint_min=25 / scenecut=40 / intra_refresh=0 / rc=2pass / mbtree=0 / bitrate=1523 / ratetol=1.0 / qcomp=0.60 / qpmin=0 / qpmax=69 / qpstep=4 / cplxblur=20.0 / qblur=0.5 / ip_ratio=1.40 / pb_ratio=1.30 / aq=1:1.00
Default : Да
Forced : Нет

Аудио
Идентификатор : 2
Формат : AC-3
Формат/Информация : Audio Coding 3
Расширение режима : CM (complete main)
Параметр Endianness формата : Big
Идентификатор кодека : A_AC3
Продолжительность : 1 ч. 34 м.
Вид битрейта : Постоянный
Битрейт : 128 Кбит/сек
Каналы : 2 канала
Расположение каналов : Front: L R
Частота : 48,0 КГц
Метод сжатия : С потерями
Размер потока : 86,3 Мбайт (8%)
Default : Да
Forced : Нет



Скачать Снайперы через торрент http://s020.radikal.ru/i723/1510/8b/254e67c7f0c8.png Скачать, смотреть онлайн Снайперы бесплантно в хорошем качестве Описание:Фильм посвящен Герою Советского Союза Алие Молдагуловой, погибшей в боях за освобождение Ленинграда. Источник: ... 9.8 10 5
Info! Золотая раздача, скачанное не засчитывается.
Торрент: Зарегистрирован [2015-10-19 09:48] · скачан: 97 раз
Статус: √ проверено
Размер: 1.09 GB
Как cкачать? Как скачать Снайперы через торрент | UTorrent

% Раздел Тема Автор DL S | L
Кино СССР [ 746 MB ] Снайперы | | Снайперы (Болотбек Шамшиев AVP Studio Скачать
1 | 0

28-11-2019 20:33  

Отключить вcю реклaмy на сайте

    Дорогой пользователь! Огромная просьба, поблагодарите релизера, оцените раздачу и оставьте свои комментарий, если Вы скачали Снайперы через торрент бесплатно!!
    Комментировать посты могут только пользователи прошедшие не сложную регистрацию
    Показать сообщения:    


    Снайперы через торрент
    Скачать бесплатно Снайперы
    Снайперы скачать торрент
    Снайперы смотреть онлайн
    Cкачать фильм Снайперы бесплатно
    Снайперы скачать торрент в хорошем качестве
    Снайперы смотреть онлайн бесплатно в хорошем качестве
    Вы не можете начинать темы
    Вы не можете отвечать на сообщения
    Вы не можете редактировать свои сообщения
    Вы не можете удалять свои сообщения
    Вы не можете голосовать в опросах
    Вы не можете прикреплять файлы к сообщениям
    Вы можете скачивать файлы