Лицензия

MVO

1

1 сезон

Лицензия

Лицензия

13

MVO

1 сезон

Deluxe Edition

pack

Рекомендуем

30

Repack

ВАЖНО

ВАЖНО

Ghostwire

RePack

jed

RePack

fifa19

RePack

RDR2

RePack

NEED FOR SPEED™ PAYBACK

RePack

Кинопоиск HD

 Острые козырьки 6 сезон

6 сезон

FAR CRY 6

RePack

Лицензия

MVO

1

1 сезон

1 сезон

Лицензия

  

Женские радости и печали (Юрий Черный) [1982, СССР, драма, военный, SATRip от AVP Studio]

Женские радости и печали через торрент piratbit.org

Размер: 1.05 GB | Добавлен: 6 лет 11 мес. назад | Торрент скачан:3 раза
Смотреть онлайн Женские радости и печали | Скачать   

22-10-2015 10:07 Женские радости и печали Скачать торрент  

Женские радости и печали
Страна: СССР
Производство: Одесская киностудия

Жанр: драма, военный
Год выпуска: 1982
Продолжительность: 01:24:26

Перевод: Не требуется
Cубтитры: нет
Оригинальная аудиодорожка: русский

Режиссер: Юрий Черный

В ролях:
Оксана Архангельская, Владимир Вихров, Валерий Юрченко, Нина Колчина-Бунь, Николай Олейник, Анатолий Рудаков, Вера Харыбина, Сергей Пожогин, Богдан Бенюк, Анна Гуляренко, Маргарита Криницына...
Полный список актёров

Описание:
По одноимённому роману Константина Басенко.
Шла Великая Отечественная война. Марьяна Чернец, курсантка школы матросов-связистов, понравилась командиру группы Лагоде. Молодые люди полюбили друг друга. Но война разлучила их - Лагода получил назначение в десантный батальон, а Марьяна осталась в тылу. Ненадолго встретившись, они решили пожениться. Вскоре Лагода ушел в море и погиб в бою. А Марьяна продолжала воевать и верить в победу.

Источник: DVB
Качество видео: SATRip
Формат видео: AVI

Видео: 688x512 (4:3), 25 fps, XviD ~ 1645 kbps avg, 0.187 bit/pixel
Аудио: 48 kHz, Dolby Digital AC3 2.0, 192 kbps

Раздача от:
Общее
Полное имя : Zhenskie.radosti.i.pechali.1982.SATRip_[New-team]_by_AVP_Studio.avi
Формат : AVI
Формат/Информация : Audio Video Interleave
Размер файла : 1,09 Гбайт
Продолжительность : 1 ч. 24 м.
Общий поток : 1846 Кбит/сек
Программа кодирования : VirtualDubMod 1.5.10.3 | www.virtualdub-fr.org || (build 2550/release)
Библиотека кодирования : VirtualDubMod build 2550/release

Видео
Идентификатор : 0
Формат : MPEG-4 Visual
Профиль формата : Advanced Simple@L5
Параметр BVOP формата : 1
Параметр QPel формата : Нет
Параметр GMC формата : Без точки перехода
Параметр матрицы формата : Выборочная
Идентификатор кодека : XVID
Идентификатор кодека/Подсказка : XviD
Продолжительность : 1 ч. 24 м.
Битрейт : 1645 Кбит/сек
Ширина : 688 пикселей
Высота : 512 пикселей
Соотношение сторон : 4:3
Частота кадров : 25,000 кадров/сек
Цветовое пространство : YUV
Субдискретизация насыщенности : 4:2:0
Битовая глубина : 8 бит
Тип развёртки : Прогрессивная
Метод сжатия : С потерями
Бит/(Пиксели*Кадры) : 0.187
Размер потока : 993 Мбайт (89%)
Библиотека кодирования : XviD 73

Аудио
Идентификатор : 1
Формат : AC-3
Формат/Информация : Audio Coding 3
Расширение режима : CM (complete main)
Параметр Endianness формата : Big
Идентификатор кодека : 2000
Продолжительность : 1 ч. 24 м.
Вид битрейта : Постоянный
Битрейт : 192 Кбит/сек
Каналы : 2 канала
Расположение каналов : Front: L R
Частота : 48,0 КГц
Метод сжатия : С потерями
Размер потока : 116 Мбайт (10%)
Выравнивание : Разделение по промежуткам
Продолжительность промежутка : 40 мс. (1,00 видеокадр)
Время предзагрузки промежутка : 500 мс



Скачать Женские радости и печали через торрент http://s017.radikal.ru/i400/1510/31/5d502f13a91f.png Скачать, смотреть онлайн Женские радости и печали бесплантно в хорошем качестве Описание:По одноимённому роману Константина Басенко.Шла Великая Отечественная война. Марьяна Чернец, курсантка школы матросов-связистов, ... 5 10 1
Info! Золотая раздача, скачанное не засчитывается.
Торрент: Зарегистрирован [2015-10-23 18:27] · скачан: 3 раз
Статус: √ проверено
Размер: 1.05 GB
Как cкачать? Как скачать Женские радости и печали через торрент | UTorrent

% Раздел Тема Автор DL S | L
Кино СССР [ 1.09 GB ] Женские радости и печали | | SATRip-AVC от AVP Studio AVP Studio Скачать
1 | 1
Кино СССР [ 746 MB ] Женские радости и печали | | SATRip от AVP Studio AVP Studio Скачать
1 | 0

28-11-2019 20:33  

Отключить вcю реклaмy на сайте

    Дорогой пользователь! Огромная просьба, поблагодарите релизера, оцените раздачу и оставьте свои комментарий, если Вы скачали Женские радости и печали через торрент бесплатно!!
    Комментировать посты могут только пользователи прошедшие не сложную регистрацию
    Показать сообщения:    


    Женские радости и печали через торрент
    Скачать бесплатно Женские радости и печали
    Женские радости и печали скачать торрент
    Женские радости и печали смотреть онлайн
    Cкачать фильм Женские радости и печали бесплатно
    Женские радости и печали скачать торрент в хорошем качестве
    Женские радости и печали смотреть онлайн бесплатно в хорошем качестве
    Вы не можете начинать темы
    Вы не можете отвечать на сообщения
    Вы не можете редактировать свои сообщения
    Вы не можете удалять свои сообщения
    Вы не можете голосовать в опросах
    Вы не можете прикреплять файлы к сообщениям
    Вы можете скачивать файлы