Присоединяйтесь к нам в Telegram!, здесь всегда актуальный адрес сайта, оперативная поддержка и многое другое!!

>

5.9

iTunes

7.4

iTunes

9.4

1 сезон

1

7.4

2 сезон

7.2

iTunes

7.3

1 сезон

13

6.1

iTunes

8.3

GOG

30

ULTIMATE

pack

9.9

Лицензия

ВАЖНО

ИГРА 18+

pack

7.3

RePack

MK11

7.7

RePack

jed

7.8

RePack

fifa19

8.5

RePack

RDR2

RePack

NEED FOR SPEED™ PAYBACK

5 сезон

9 сезон

Бесстыжие 9 сезон

Все сериалы

все сериалы на PB.wtf

RePack

FAR CRY 5

Anonymous, добрый день, мы катастрофически не успеваем собрать деньги на оплату серверов, помогите нам пожалуйста 5,10,15р., для нас важна любая помощь . В качестве благодарности мы отключим Вам всю рекламу на сайте (укажите свой ник в строку Ваше имя)!

×
  
Magnet ссылка

Шальное ранение / Blunt Force Trauma (Кен Сэнзел) [2015, боевик, HDRip, Любительский одноголосый [Xixidok] piratbit.org

Шальное ранение через торрент piratbit.org

Размер: 1.37 GB | Добавлен: 6 лет 1 мес. назад | Торрент скачан:243 раза
Смотреть онлайн Шальное ранение | Скачать    Ребята, помогите собрать деньги на оплату серверов!!!

24-10-2015 09:05 Шальное ранение Скачать торрент  


Шальное ранение / Blunt Force Trauma


ИНФОРМАЦИЯ:
Год выпуска:2015
Страна: Колумбия
Жанр: боевик
Продолжительность: 01:36:36
Перевод: Любительский одноголосый [Xixidok]
Режиссер: Кен Сэнзел

В Ролях:


Райан Квантен (John), Фрида Пинто (Colt), Микки Рурк (Zorringer), Джон Мак (Reggie), Джейсон Гибсон (Huey), Каролина Гомес (Marla), David Villada (Mob, озвучка), Maruia Shelton (Wesley), Рубен Самора (Silva), Стивен Галарсе (Arch), Tatiana Ronderos (Sandra), Daniel Abril (Rodrigo)

Описание:
Джон и Кольт - очень отчаянная пара и привыкли к опасности. Самое невероятное заключается в том, что в самых опасных и экстремальных ситуациях у них находится время для любви. Они являются одновременно и напарниками и любовниками, но рано или поздно им придется сделать выбор и понять, что для них более важно: деньги или чувства.

  • Мировая премьера:20 июля 2015

    ТЕХ.ДАННЫЕ:
    Качество: HDRip
    Формат: AVI
    Видео: XviD, 720x400 (16:9), 1495 kbps, 23,976 fps, 0,217 bpp
    Аудио: AC3 / 5.1 / 48 kHz / 448 kbps / 16 bit


    General
    Complete name : D:\Торенты\Blunt.Force.Trauma.2015.xixidok.HDRip.ExKinoRay.avi
    Format : AVI
    Format/Info : Audio Video Interleave
    File size : 1.37 GiB
    Duration : 1h 36mn
    Overall bit rate : 2 033 Kbps
    Writing application : VirtualDubMod 1.5.10.2 (build 2540/release)
    Writing library : VirtualDubMod build 2540/release
    Copyright : ExKinoRay

    Video
    ID : 0
    Format : MPEG-4 Visual
    Format profile : Advanced Simple@L5
    Format settings, BVOP : 1
    Format settings, QPel : No
    Format settings, GMC : No warppoints
    Format settings, Matrix : Custom
    Codec ID : XVID
    Codec ID/Hint : XviD
    Duration : 1h 36mn
    Bit rate : 1 496 Kbps
    Width : 720 pixels
    Height : 400 pixels
    Display aspect ratio : 16:9
    Frame rate : 23.976 fps
    Color space : YUV
    Chroma subsampling : 4:2:0
    Bit depth : 8 bits
    Scan type : Progressive
    Compression mode : Lossy
    Bits/(Pixel*Frame) : 0.217
    Stream size : 1.01 GiB (74%)
    Writing library : XviD 73

    Audio
    ID : 1
    Format : AC-3
    Format/Info : Audio Coding 3
    Mode extension : CM (complete main)
    Codec ID : 2000
    Duration : 1h 36mn
    Bit rate mode : Constant
    Bit rate : 448 Kbps
    Channel(s) : 6 channels
    Channel positions : Front: L C R, Side: L R, LFE
    Sampling rate : 48.0 KHz
    Bit depth : 16 bits
    Compression mode : Lossy
    Stream size : 310 MiB (22%)
    Alignment : Split accross interleaves
    Title : xixidok
    Скриншоты:


    © Оформление by Ворон
    piratbit.org



  • Скачать Шальное ранение через торрент https://pic1.kartinco.top/images/61/ordi9.jpg Скачать, смотреть онлайн Шальное ранение бесплантно в хорошем качестве Описание: Джон и Кольт - очень отчаянная пара и привыкли к опасности. Самое невероятное заключается в том, что в самых опасных и ... 8.8 10 16
    Торрент: Зарегистрирован [2015-10-24 09:05] · скачан: 243 раз
    Статус: T временная
    Размер: 1.37 GB
    Как cкачать? Как скачать Шальное ранение через торрент | UTorrent

    % Раздел Тема Автор DL S | L
    T Фильмы [HD 720p, 1080p] (Звук Cam, VO, DVO) [ 10.14 GB ] Шальное ранение / Blunt Force Trauma [2015 BDRip 1080p Любительский одноголосый [Xixidok] Ворон Скачать
    1 | 0

    28-11-2019 20:33  

    Отключить всю рекламу на сайте

      Дорогой пользователь! Огромная просьба, поблагодарите релизера, оцените раздачу и оставьте свои комментарий, если Вы скачали Шальное ранение через торрент бесплатно!
      Комментировать посты могут только пользователи прошедшие не сложную регистрацию
      Показать сообщения:    

      Шальное ранение через торрент
      Скачать бесплатно Шальное ранение
      Шальное ранение скачать торрент
      Шальное ранение смотреть онлайн
      Cкачать фильм Шальное ранение бесплатно
      Шальное ранение скачать торрент в хорошем качестве
      Шальное ранение смотреть онлайн бесплатно в хорошем качестве


      Вы не можете начинать темы
      Вы не можете отвечать на сообщения
      Вы не можете редактировать свои сообщения
      Вы не можете удалять свои сообщения
      Вы не можете голосовать в опросах
      Вы не можете прикреплять файлы к сообщениям
      Вы можете скачивать файлы