Присоединяйтесь к нам в Telegram!, здесь всегда актуальный адрес сайта, оперативная поддержка и многое другое!!

>

5.9

iTunes

7.4

iTunes

9.4

1 сезон

1

7.4

2 сезон

7.2

iTunes

7.3

1 сезон

13

6.1

iTunes

8.3

Пиратка

30

ULTIMATE

pack

9.9

Лицензия

ВАЖНО

ИГРА 18+

pack

7.3

RePack

MK11

7.7

RePack

jed

7.8

RePack

fifa19

8.5

RePack

RDR2

RePack

NEED FOR SPEED™ PAYBACK

5 сезон

9 сезон

Бесстыжие 9 сезон

Все сериалы

все сериалы на PB.wtf

RePack

FAR CRY 5

Anonymous, добрый вечер, мы катастрофически не успеваем собрать деньги на оплату серверов, помогите нам пожалуйста 5,10,15р., для нас важна любая помощь . В качестве благодарности мы отключим Вам всю рекламу на сайте (укажите свой ник в строку Ваше имя)!

×
  
Magnet ссылка

Озорники / Hellions (Брюс МакДональд) [2015, ужасы, HDRip, Любительский (двухголосый) [2D] piratbit.org

Озорники через торрент piratbit.org

Размер: 1.37 GB | Добавлен: 6 лет 1 мес. назад | Торрент скачан:96 раз
Смотреть онлайн Озорники | Скачать    Ребята, помогите собрать деньги на оплату серверов!!!

24-10-2015 12:48 Озорники Скачать торрент  


Озорники / Hellions
««This Halloween, Hell Comes Knocking»»

ИНФОРМАЦИЯ:
Год выпуска:2015
Страна: Канада
Жанр: ужасы

Продолжительность: 01:21:38
Перевод: Любительский (двухголосый) [2D]
Режиссер: Брюс МакДональд

В Ролях:


Хлоя Роуз (Dora Vogel), Роберт Патрик (Corman), Россиф Сазерленд (Doctor Henry), Рэйчел Уилсон (Kate Vogel), Люк Билык (Jace), Питер ДаКуна (Remi Vogel), Emir Hirad Mokhtarieh (Buckethead), Николас Крэйг (Pinocchio), Сидни Кросс (Raggedy Ann), Stephanie Fonceca (Rat King), Аделаида Хэмпфри (Lionhead), Aliyah Jhirad (Riding Hood)

Описание:
Рассказ пойдет про то, как 17-летняя девушка борется за свою жизнь, убегая от непонятно откуда взявшихся на Хэллоуин кошмарных монстров.

  • Мировая премьера:25 января 2015

    ТЕХ.ДАННЫЕ:
    Качество: HDRip
    Формат: AVI
    Видео: XviD, 720x400 (16:9), 1651 kbps, 23,976 fps, 0,239 bpp
    Аудио №1: AC3 / 2.0 / 48 kHz / 192 kbps / Русский
    Аудио №2: AC3 / 5.1 / 48 kHz / 448 kbps / английский


    General
    Complete name : D:\Торенты\Hellions.2015.L2.HDRip.1400Mb.avi
    Format : AVI
    Format/Info : Audio Video Interleave
    File size : 1.37 GiB
    Duration : 1h 21mn
    Overall bit rate : 2 397 Kbps
    Writing application : VirtualDubMod 1.5.10.2 (build 2540/release)
    Writing library : VirtualDubMod build 2540/release

    Video
    ID : 0
    Format : MPEG-4 Visual
    Format profile : Advanced Simple@L5
    Format settings, BVOP : 2
    Format settings, QPel : No
    Format settings, GMC : No warppoints
    Format settings, Matrix : Default (MPEG)
    Codec ID : XVID
    Codec ID/Hint : XviD
    Duration : 1h 21mn
    Bit rate : 1 651 Kbps
    Width : 720 pixels
    Height : 400 pixels
    Display aspect ratio : 16:9
    Frame rate : 23.976 fps
    Color space : YUV
    Chroma subsampling : 4:2:0
    Bit depth : 8 bits
    Scan type : Progressive
    Compression mode : Lossy
    Bits/(Pixel*Frame) : 0.239
    Stream size : 964 MiB (69%)
    Writing library : XviD 1.2.1 (UTC 2008-12-04)

    Audio #1
    ID : 1
    Format : AC-3
    Format/Info : Audio Coding 3
    Mode extension : CM (complete main)
    Codec ID : 2000
    Duration : 1h 21mn
    Bit rate mode : Constant
    Bit rate : 192 Kbps
    Channel(s) : 2 channels
    Channel positions : Front: L R
    Sampling rate : 48.0 KHz
    Bit depth : 16 bits
    Compression mode : Lossy
    Stream size : 112 MiB (8%)
    Alignment : Split accross interleaves

    Audio #2
    ID : 2
    Format : AC-3
    Format/Info : Audio Coding 3
    Mode extension : CM (complete main)
    Codec ID : 2000
    Duration : 1h 21mn
    Bit rate mode : Constant
    Bit rate : 448 Kbps
    Channel(s) : 6 channels
    Channel positions : Front: L C R, Side: L R, LFE
    Sampling rate : 48.0 KHz
    Bit depth : 16 bits
    Compression mode : Lossy
    Stream size : 262 MiB (19%)
    Alignment : Split accross interleaves
    Скриншоты:


    © Оформление by Ворон
    piratbit.org



  • Скачать Озорники через торрент https://pic1.kartinco.top/images/61/ordi9.jpg Скачать, смотреть онлайн Озорники бесплантно в хорошем качестве Описание: Рассказ пойдет про то, как 17-летняя девушка борется за свою жизнь, убегая от непонятно откуда взявшихся на Хэллоуин кошмарных ... 9 10 9
    Торрент: Зарегистрирован [2015-10-24 12:48] · скачан: 96 раз
    Статус: T временная
    Размер: 1.37 GB
    Как cкачать? Как скачать Озорники через торрент | UTorrent

    28-11-2019 20:33  

    Отключить всю рекламу на сайте

      Дорогой пользователь! Огромная просьба, поблагодарите релизера, оцените раздачу и оставьте свои комментарий, если Вы скачали Озорники через торрент бесплатно!
      Комментировать посты могут только пользователи прошедшие не сложную регистрацию
      Показать сообщения:    

      Озорники через торрент
      Скачать бесплатно Озорники
      Озорники скачать торрент
      Озорники смотреть онлайн
      Cкачать фильм Озорники бесплатно
      Озорники скачать торрент в хорошем качестве
      Озорники смотреть онлайн бесплатно в хорошем качестве


      Вы не можете начинать темы
      Вы не можете отвечать на сообщения
      Вы не можете редактировать свои сообщения
      Вы не можете удалять свои сообщения
      Вы не можете голосовать в опросах
      Вы не можете прикреплять файлы к сообщениям
      Вы можете скачивать файлы