Доктор Стрэндж

Лицензия

Добыча

Дубляж

Дом дракона

1 сезон

Тор

Дубляж

В эфире

Дубляж

Там, где раки поют

MVO

Властелин колец

1 сезон

Ultimate

pack

Рекомендуем

30

Пиратка

ВАЖНО

ВАЖНО

Ghostwire

Пиратка

jed

RePack

nioh2

RePack

RDR2

RePack

NEED FOR SPEED™ PAYBACK

RePack

скачать торрент

Кинопоиск HD

Острые козырьки 6 сезон

6 сезон

FAR CRY 6

RePack

скачать торрент

Лицензия

скачать торрент

MVO

1

1 сезон

скачать торрент

1 сезон

скачать торрент

Лицензия

  

Безродные звери / Beasts of No Nation (Кэри Фукунага) [2015, драма, военный, WEBRip 1080p, Любительский (одноголосый) [Project Web Money]

Безродные звери через торрент piratbit.org

Размер: 8.57 GB | Добавлен: 7 лет 1 мес. назад | Торрент скачан:83 раза
Смотреть онлайн | Скачать   

26-10-2015 06:31 Безродные звери Скачать торрент  

Безродные звери / Beasts of No Nation
««Child. Captive. Killer»»

ИНФОРМАЦИЯ:
Год выпуска:2015
Страна: США
Жанр: драма, военный
Продолжительность: 02:16:32
Перевод: Любительский (одноголосый) [Project Web Money]
Субтитры: русские, английские,
Режиссер: Кэри Фукунага

В Ролях:


Абрам Атта (Agu), Emmanuel Affadzi (Dike), Ricky Adelayitor (Village Constable), Andrew Adote (Ecomod 2nd Lieutenant), Vera Nyarkoah Antwi (Little Sister), Ama K. Abebrese (Mother), Kobina Amissah-Sam (Father), Francis Weddey (Big Brother), Fred Nii Amugi (Pastor), Джон Артур (Angry Bush Taxi Driver), Grace Nortey (Old Witch Woman), Emmary Brown (Grandfather)

Описание:
Фильм расскажет о приключениях юноши по имени Агу, которого гражданская война на западе Африки принуждает вступить в команду наемников. Судьбе мало того, что парень пережил гибель отца и исчезновение сестры и матери, она погружает его в жизнь, полную насилия и жестокости.

  • Мировая премьера:3 сентября 2015

    ТЕХ.ДАННЫЕ:
    Качество: WEBRip 1080p
    Формат: MKV
    Видео: AVC, 1920x808 (2.40:1), 8300 kbps, 23,976 fps, 0,223 bpp
    Аудио №1: русский / AC3 / 2.0 / 48 kHz / 192 kbps / 16 bit ||
    Аудио №2: английский / AC3 / 5.1 / 48 kHz / 640 kbps / 16 bit


    General
    Unique ID : 212021316898503973035209584938862672252 (0x9F81D1FF98641D3CAFB366C966FA797C)
    Complete name : D:\Торенты\Beasts.of.No.Nation.2015.WEBRip.1080p.VO.mkv
    Format : Matroska
    Format version : Version 4 / Version 2
    File size : 8.57 GiB
    Duration : 2h 16mn
    Overall bit rate : 8 988 Kbps
    Movie name : Beasts of No Nation 2015 @ NNM-Club
    Encoded date : UTC 2015-10-25 10:02:07
    Writing application : mkvmerge v6.9.1 ('Blue Panther') 64bit built on Apr 18 2014 18:23:38
    Writing library : libebml v1.3.0 + libmatroska v1.4.1

    Video
    ID : 1
    Format : AVC
    Format/Info : Advanced Video Codec
    Format profile : High@L4.1
    Format settings, CABAC : Yes
    Format settings, ReFrames : 5 frames
    Codec ID : V_MPEG4/ISO/AVC
    Duration : 2h 16mn
    Bit rate : 8 300 Kbps
    Width : 1 920 pixels
    Height : 808 pixels
    Display aspect ratio : 2.40:1
    Frame rate : 23.976 fps
    Color space : YUV
    Chroma subsampling : 4:2:0
    Bit depth : 8 bits
    Scan type : Progressive
    Bits/(Pixel*Frame) : 0.223
    Stream size : 7.61 GiB (89%)
    Writing library : x264 core 148 r2597 e86f3a1
    Encoding settings : cabac=1 / ref=5 / deblock=1:-2:-1 / analyse=0x3:0x133 / me=umh / subme=9 / psy=1 / psy_rd=1.00:0.15 / mixed_ref=1 / me_range=16 / chroma_me=1 / trellis=2 / 8x8dct=1 / cqm=0 / deadzone=21,11 / fast_pskip=1 / chroma_qp_offset=-3 / threads=12 / lookahead_threads=2 / sliced_threads=0 / nr=0 / decimate=1 / interlaced=0 / bluray_compat=0 / constrained_intra=0 / bframes=3 / b_pyramid=2 / b_adapt=2 / b_bias=0 / direct=3 / weightb=1 / open_gop=0 / weightp=2 / keyint=240 / keyint_min=23 / scenecut=40 / intra_refresh=0 / rc_lookahead=60 / rc=abr / mbtree=1 / bitrate=8300 / ratetol=1.0 / qcomp=0.60 / qpmin=0 / qpmax=69 / qpstep=4 / vbv_maxrate=62500 / vbv_bufsize=78125 / nal_hrd=none / filler=0 / ip_ratio=1.40 / aq=3:1.00
    Language : English
    Default : Yes
    Forced : No
    Color primaries : BT.709-5, BT.1361, IEC 61966-2-4, SMPTE RP177
    Transfer characteristics : BT.709-5, BT.1361
    Matrix coefficients : BT.709-5, BT.1361, IEC 61966-2-4 709, SMPTE RP177

    Audio #1
    ID : 2
    Format : AC-3
    Format/Info : Audio Coding 3
    Mode extension : CM (complete main)
    Codec ID : A_AC3
    Duration : 2h 16mn
    Bit rate mode : Constant
    Bit rate : 192 Kbps
    Channel(s) : 2 channels
    Channel positions : Front: L R
    Sampling rate : 48.0 KHz
    Bit depth : 16 bits
    Compression mode : Lossy
    Stream size : 188 MiB (2%)
    Language : Russian
    Default : Yes
    Forced : No

    Audio #2
    ID : 3
    Format : AC-3
    Format/Info : Audio Coding 3
    Mode extension : CM (complete main)
    Codec ID : A_AC3
    Duration : 2h 16mn
    Bit rate mode : Constant
    Bit rate : 640 Kbps
    Channel(s) : 6 channels
    Channel positions : Front: L C R, Side: L R, LFE
    Sampling rate : 48.0 KHz
    Bit depth : 16 bits
    Compression mode : Lossy
    Delay relative to video : 6ms
    Stream size : 625 MiB (7%)
    Language : English
    Default : No
    Forced : No

    Text #1
    ID : 4
    Format : UTF-8
    Codec ID : S_TEXT/UTF8
    Codec ID/Info : UTF-8 Plain Text
    Language : Russian
    Default : No
    Forced : No

    Text #2
    ID : 5
    Format : UTF-8
    Codec ID : S_TEXT/UTF8
    Codec ID/Info : UTF-8 Plain Text
    Language : English
    Default : No
    Forced : No
    Скриншоты:



  • Скачать Безродные звери через торрент http://i6-imageban-ru.translate.goog/out/2015/10/26/643f8d4b13cd8ee79a8188e2adb2ca4a.jpg Скачать, смотреть онлайн Безродные звери бесплантно в хорошем качестве Описание: Фильм расскажет о приключениях юноши по имени Агу, которого гражданская война на западе Африки принуждает вступить в команду ... 9.2 10 9
    Торрент: Зарегистрирован [2015-10-26 06:31] · скачан: 83 раз
    Статус: T временная
    Размер: 8.57 GB
    Как cкачать? Как скачать Безродные звери через торрент | UTorrent

    % Раздел Тема Автор DL S | L
    Фильмы с авторской озвучкой [ 1.46 GB ] Безродные звери / Beasts of No Nation | | DLRip Twi7ter Скачать
    1 | 0
    T Фильмы 2015 (Звук TS, Cam, VO, DVO) [ 2.05 GB ] Безродные звери / Beasts of No Nation | | WEBRip -Lexx- Скачать
    1 | 0
    T Фильмы (WEB-DL 720p, 1080p) [ 8.57 GB ] Безродные звери / Beasts of No Nation | | 1080p -Lexx- Скачать
    1 | 0
    T Фильмы 2015 (Звук TS, Cam, VO, DVO) [ 1.54 GB ] Безродные звери / Beasts of No Nation | | WEBRip Ворон Скачать
    1 | 0
    Фильмы без перевода [ 1.43 GB ] Безродные звери / Beasts of No Nation | | HDRip killermax2013 Скачать
    1 | 0



    Последний раз редактировалось: Ворон (2015-10-26 06:34), всего редактировалось 1 раз

    28-11-2019 20:33  


    Отключить вcю реклaмy на сайте, в т.ч. и в плеере онлайн просмотра!

    26-10-2015 06:53 Безродные звери Скачать торрент  

    Тут еще играет известный актер Идрис Эльба Валянки с кинопоиска как всегда нормальную инфу не могут указать sarcastic facepalm



      Дорогой пользователь! Огромная просьба, поблагодарите релизера, оцените раздачу и оставьте свои комментарий, если Вы скачали Безродные звери через торрент бесплатно!!
      Комментировать посты могут только пользователи прошедшие не сложную регистрацию
      Показать сообщения:    


      Безродные звери через торрент
      Скачать бесплатно Безродные звери
      Безродные звери скачать торрент
      Безродные звери смотреть онлайн
      Cкачать фильм Безродные звери бесплатно
      Безродные звери скачать торрент в хорошем качестве
      Безродные звери смотреть онлайн бесплатно в хорошем качестве
      Вы не можете начинать темы
      Вы не можете отвечать на сообщения
      Вы не можете редактировать свои сообщения
      Вы не можете удалять свои сообщения
      Вы не можете голосовать в опросах
      Вы не можете прикреплять файлы к сообщениям
      Вы можете скачивать файлы
      Безродные звери / Beasts of No Nation [2015, драма, военный, WEBRip 1080p, Любительский [Project Web Money] смотреть онлайн, скачать торрент picoco.icu