Ссылка на приватное зеркало всего за 1$. Внимание количество ограничено!!!

iTunes

iTunes

iTunes

1

iTunes

iTunes

iTunes

iTunes

iTunes

30
pack

$ от Little Big

ВАЖНО

!!Акция!!

Alien_RageХит недели

RePack

Resident Evil 21

ИГРА 18+

pack

RePack

jed

!!Акция!!

Alien_Rage

RePack

fifa19

RePack

Assassins Creed: Odyssey

RePack

NEED FOR SPEED™ PAYBACK

4 сезон

9 сезон

Бесстыжие 9 сезон

Все сериалы

все сериалы на PB.wtf

RePack

FAR CRY 5
  

Помни / Память / Мементо / Memento (Кристофер Нолан /Christopher Nolan) [1080p] [2000, США, Триллер, криминал, детектив, BDRip]DUB+MVO(R5, D2Lab)+AVO(Кузнецов, Либергал)+Orig+Sub(Rus, Eng) piratbit.org

Помни через торрент piratbit.org

Размер: 12.58 GB | Добавлен: 9 лет назад | Торрент скачан:133 раза
Скачать  

16-07-2010 16:17 Помни Скачать торрент  

Помни / Memento

«Некоторые воспоминания лучше забыть»

Год выпуска: 2000
Страна: США
Жанр: триллер, детектив
Продолжительность: 113 мин.
Перевод: Профессиональный (полное дублирование), Профессиональный (многоголосый, закадровый, Союз R5),
Профессиональный (многоголосый, закадровый, D2Lab),
Авторский (одноголосый, закадровый, Сергей Кузнецов), Авторский (одноголосый, закадровый, Григорий Либергал)
Субтитры: Русские , Английские

Режиссер: Кристофер Нолан /Christopher Nolan
Продюссер: Кристофер Болл, Илэйн Дусингер, Аарон Райдер, ...
Сценарий: Джонатан Нолан, Кристофер Нолан

Бюджет: $9 000 000
Премьера в мире: 5 сентября 2000

R
-Лицам до 17 лет обязательно присутствие взрослого
Мировой рейтинг IMDB 8.60 (262 136)

Top 250 IMDB: №28
Топ 250 Кинопоиска: №228
Читательский рейтинг сайта kino-govno.com 93%
Рецензия Алекса Экслера


В ролях: Гай Пирс, Кэрри-Энн Мосс, Джо Пантолиано, Марк Бун Джуниор, Russ Fega, Джоржа Фокс, Стивен Тоболовски, Харриет Сэнсом Харрис, Томас Леннон, Каллум Кейт Ренни, Кимберли Кэмпбелл, Марианн Мюллерлейл, Ларри Холден, Базз Висконти

Описание: Леонард Шелби изысканно и дорого одет, ездит на новеньком «Ягуаре», но проживает в дешевых мотелях. Его цель в жизни  найти убийцу жены.
Его проблема  редкая форма амнезии, потеря короткой памяти, помня все до убийства, он не помнит, что было пятнадцать минут назад.
Его друзья  Тедди и Натали, да и друзья ли они ему. Его спутники  фотоаппарат «Полароид» и татуировки на теле.
Главный вопрос  почему наказанных больше, чем виноватых?
Качество: BDRip (1080p)
Формат: MKV
Видео кодек: H.264
Аудио кодек: DTS
Видео: 1920x816 at 23.976 fps, x264@L4.1, ~9 235 Kbps avg
Аудиопоток №1: DD 5.1, 48 kHz, 384 kbps |Профессиональный дубляж, киноконцерн «Мосфильм» по заказу компании «Вест», 2001|
Аудиопоток №2: DD 5.1, 48 kHz, 448 kbps |Профессиональный многоголосный закадровый, R5 СОЮЗ Видео, 2009|
Аудиопоток №3: DTS 5.1, 48 kHz, 24 bit, 768 kbps |Профессиональный многоголосный закадровый D2Lab|
Аудиопоток №4: DTS 5.1, 48 kHz, 24 bit, 768 kbps |Авторский одноголосый закадровый перевод, Сергей Кузнецов|
Аудиопоток №5: DTS 5.1, 48 kHz, 16 bit, 1536 kbps |Авторский одноголосый закадровый перевод, Григорий Либергал|
Аудиопоток №6: DTS 5.1, 48 kHz, 16 bit, 1536 kbps |Оригинальный английский звук|
Аудиопоток №7: DD 2.0, 48 kHz, 192 kbps |Комментарии режиссера Кристофера Нолана с закадровым переводом|
Аудиопоток №8: DD Surround 2.0, 48 kHz, 192 kbps |Комментарии режиссера Кристофера Нолана, версия №1|
Аудиопоток №9: DD Surround 2.0, 48 kHz, 192 kbps |Комментарии режиссера Кристофера Нолана, версия №2|
Аудиопоток №10: DD Surround 2.0, 48 kHz, 192 kbps |Комментарии режиссера Кристофера Нолана, версия №3|
Аудиопоток №11: DD Surround 2.0, 48 kHz, 192 kbps |Комментарии режиссера Кристофера Нолана, версия №4|
Субтитры: Русские (R5 СОЮЗ Видео, Киномания, D2Lab, любительские от ssgen в редакции KillerBeer, RDA Team, для слабослышащих), Английские
Релиз от: CHD
General
Complete name : I:\Movies\Memento.2000.Bluray.1080p.DTS.x264-CHD\Memento.2000.Bluray.1080p.DTS.x264.CHD.Rus.Eng.mkv
Format : Matroska
File size : 12.6 GiB
Duration : 1h 53mn
Overall bit rate : 15.9 Mbps
Encoded date : UTC 2010-07-15 07:32:22
Writing application : mkvmerge v3.2.0 ('Beginnings') built on Feb 12 2010 16:46:17
Writing library : libebml v0.7.9 + libmatroska v0.8.1

Video
ID : 1
Format : AVC
Format/Info : Advanced Video Codec
Format profile : High@L4.1
Format settings, CABAC : Yes
Format settings, ReFrames : 4 frames
Muxing mode : Container profile=Unknown@4.1
Codec ID : V_MPEG4/ISO/AVC
Duration : 1h 53mn
Bit rate : 9 235 Kbps
Nominal bit rate : 9 555 Kbps
Width : 1 920 pixels
Height : 816 pixels
Display aspect ratio : 2.35:1
Frame rate : 23.976 fps
Original frame rate : 24.000 fps
Resolution : 8 bits
Colorimetry : 4:2:0
Scan type : Progressive
Bits/(Pixel*Frame) : 0.246
Stream size : 7.31 GiB (58%)
Title : Memento.2000
Writing library : x264 core 67 r1153M 7b6ce6a
Encoding settings : cabac=1 / ref=4 / deblock=1:-3:-3 / analyse=0x3:0x113 / me=umh / subme=9 / psy_rd=1.1:0.3 / mixed_ref=1 / me_range=26 / chroma_me=1 / trellis=1 / 8x8dct=1 / cqm=2 / deadzone=21,11 / chroma_qp_offset=-4 / threads=12 / nr=0 / decimate=1 / mbaff=0 / bframes=3 / b_pyramid=1 / b_adapt=1 / b_bias=0 / direct=3 / wpredb=1 / keyint=250 / keyint_min=25 / scenecut=40 / rc=2pass / bitrate=9555 / ratetol=1.0 / qcomp=0.60 / qpmin=10 / qpmax=51 / qpstep=4 / cplxblur=20.0 / qblur=0.5 / ip_ratio=1.40 / pb_ratio=1.30 / aq=1:1.00
Language : English

Audio #1
ID : 2
Format : AC-3
Format/Info : Audio Coding 3
Codec ID : A_AC3
Duration : 1h 53mn
Bit rate mode : Constant
Bit rate : 384 Kbps
Channel(s) : 6 channels
Channel positions : Front: L C R, Surround: L R, LFE
Sampling rate : 48.0 KHz
Stream size : 312 MiB (2%)
Title : RUS Dub DD 5.1, 48 kHz, 384 kbps
Language : Russian

Audio #2
ID : 3
Format : AC-3
Format/Info : Audio Coding 3
Codec ID : A_AC3
Duration : 1h 53mn
Bit rate mode : Constant
Bit rate : 448 Kbps
Channel(s) : 6 channels
Channel positions : Front: L C R, Surround: L R, LFE
Sampling rate : 48.0 KHz
Stream size : 364 MiB (3%)
Title : RUS MVO R5 SOYUZ Video DD 5.1, 48 kHz, 448 kbps
Language : Russian

Audio #3
ID : 4
Format : DTS
Format/Info : Digital Theater Systems
Codec ID : A_DTS
Duration : 1h 53mn
Bit rate mode : Constant
Bit rate : 755 Kbps
Channel(s) : 6 channels
Channel positions : Front: L C R, Surround: L R, LFE
Sampling rate : 48.0 KHz
Resolution : 24 bits
Stream size : 612 MiB (5%)
Title : RUS MVO D2Lab DTS 5.1, 48 kHz, 24 bit, 768 kbps
Language : Russian

Audio #4
ID : 5
Format : DTS
Format/Info : Digital Theater Systems
Codec ID : A_DTS
Duration : 1h 53mn
Bit rate mode : Constant
Bit rate : 755 Kbps
Channel(s) : 6 channels
Channel positions : Front: L C R, Surround: L R, LFE
Sampling rate : 48.0 KHz
Resolution : 24 bits
Stream size : 612 MiB (5%)
Title : RUS AVO Kuznecov DTS 5.1, 48 kHz, 24 bit, 768 kbps
Language : Russian

Audio #5
ID : 6
Format : DTS
Format/Info : Digital Theater Systems
Codec ID : A_DTS
Duration : 1h 53mn
Bit rate mode : Constant
Bit rate : 1 510 Kbps
Channel(s) : 6 channels
Channel positions : Front: L C R, Surround: L R, LFE
Sampling rate : 48.0 KHz
Resolution : 16 bits
Stream size : 1.20 GiB (10%)
Title : RUS AVO Libergal DTS 5.1, 48 kHz, 16 bit, 1536 kbps
Language : Russian

Audio #6
ID : 7
Format : DTS
Format/Info : Digital Theater Systems
Codec ID : A_DTS
Duration : 1h 53mn
Bit rate mode : Constant
Bit rate : 1 510 Kbps
Channel(s) : 6 channels
Channel positions : Front: L C R, Surround: L R, LFE
Sampling rate : 48.0 KHz
Resolution : 16 bits
Stream size : 1.20 GiB (10%)
Title : ENG DTS 5.1, 48 kHz, 16 bit, 1536 kbps
Language : English

Audio #7
ID : 8
Format : AC-3
Format/Info : Audio Coding 3
Codec ID : A_AC3
Duration : 1h 53mn
Bit rate mode : Constant
Bit rate : 192 Kbps
Channel(s) : 2 channels
Channel positions : L R
Sampling rate : 48.0 KHz
Stream size : 156 MiB (1%)
Title : RUS commentary DD 2.0, 48 kHz, 192 kbps
Language : Russian

Audio #8
ID : 9
Format : AC-3
Format/Info : Audio Coding 3
Format profile : Dolby Digital
Codec ID : A_AC3
Duration : 1h 53mn
Bit rate mode : Constant
Bit rate : 192 Kbps
Channel(s) : 2 channels
Channel positions : L R
Sampling rate : 48.0 KHz
Stream size : 156 MiB (1%)
Title : ENG commentary #1 DD Surround 2.0, 48 kHz, 192 kbps
Language : English

Audio #9
ID : 10
Format : AC-3
Format/Info : Audio Coding 3
Format profile : Dolby Digital
Codec ID : A_AC3
Duration : 1h 53mn
Bit rate mode : Constant
Bit rate : 192 Kbps
Channel(s) : 2 channels
Channel positions : L R
Sampling rate : 48.0 KHz
Stream size : 156 MiB (1%)
Title : ENG commentary #2 DD Surround 2.0, 48 kHz, 192 kbps
Language : English

Audio #10
ID : 11
Format : AC-3
Format/Info : Audio Coding 3
Format profile : Dolby Digital
Codec ID : A_AC3
Duration : 1h 53mn
Bit rate mode : Constant
Bit rate : 192 Kbps
Channel(s) : 2 channels
Channel positions : L R
Sampling rate : 48.0 KHz
Stream size : 156 MiB (1%)
Title : ENG commentary #3 DD Surround 2.0, 48 kHz, 192 kbps
Language : English

Audio #11
ID : 12
Format : AC-3
Format/Info : Audio Coding 3
Format profile : Dolby Digital
Codec ID : A_AC3
Duration : 1h 53mn
Bit rate mode : Constant
Bit rate : 192 Kbps
Channel(s) : 2 channels
Channel positions : L R
Sampling rate : 48.0 KHz
Stream size : 156 MiB (1%)
Title : ENG commentary #4 DD Surround 2.0, 48 kHz, 192 kbps
Language : English

Text #1
ID : 13
Format : UTF-8
Codec ID : S_TEXT/UTF8
Codec ID/Info : UTF-8 Plain Text
Title : RUS R5 SOYUZ Video SRT/UTF8
Language : Russian

Text #2
ID : 14
Format : UTF-8
Codec ID : S_TEXT/UTF8
Codec ID/Info : UTF-8 Plain Text
Title : RUS Kinomania SRT/UTF8
Language : Russian

Text #3
ID : 15
Format : UTF-8
Codec ID : S_TEXT/UTF8
Codec ID/Info : UTF-8 Plain Text
Title : RUS D2Lab SRT/UTF8
Language : Russian

Text #4
ID : 16
Format : UTF-8
Codec ID : S_TEXT/UTF8
Codec ID/Info : UTF-8 Plain Text
Title : RUS fan ssgen & KillerBeer SRT/UTF8
Language : Russian

Text #5
ID : 17
Format : UTF-8
Codec ID : S_TEXT/UTF8
Codec ID/Info : UTF-8 Plain Text
Title : RUS fan RDA Team SRT/UTF8
Language : Russian

Text #6
ID : 18
Format : UTF-8
Codec ID : S_TEXT/UTF8
Codec ID/Info : UTF-8 Plain Text
Title : RUS HI fan BetaMAN SRT/UTF8
Language : Russian

Text #7
ID : 19
Format : UTF-8
Codec ID : S_TEXT/UTF8
Codec ID/Info : UTF-8 Plain Text
Title : ENG SRT/UTF8
Language : English

* Название болезни, которой поражен Леонард — антероградная амнезия. Это — неспособность вспомнить новую информацию, усвоенную человеком после события, спровоцировавшего амнезию. В течение 50-х годов прошлого века врачи изучали некоторые формы эпилепсии и проводили ряд операций на мозг, которые вызывали точно такие же проблемы с памятью.
* Фильм снимался в Южной Калифорнии в течение 25 дней.
* Номер телефона Тедди, 555-01-34, такой же, как и у Марлы Зингер из легендарного «Бойцовского клуба».
* Стивен Тоболовски позже сыграл еще одного персонажа, страдающего от потери памяти в эпизоде фильма «Одинокие бандиты».
* Все снимки Леонард Шелби делает с помощью фотоаппарата «Polaroid 690».
* Около мотеля можно заметить белую «Honda Civic», припаркованную рядом с «Jaguar» Леонарда. Это машина режиссера Кристофера Нолана.
* Первым, кого хотел видеть в роли Леонарда Кристофер Нолан, был актер Алек Болдуин.
* Среди вещей жены Леонарда, которые были разложены по номеру мотеля, можно заметить часы. Они были украдены героем Биллом в фильме Нолана «Преследование» (1998).
* Изначально планировалось, что песня «Radiohead» — «Paranoid Android» должна была зазвучать вместе с финальными титрами. Но Кристофер Нолан решил, что стоимость лицензии на использование этой композиции слишком велика для его низкобюджетного фильма.
* Тату-салон «Эмма Томас», который посещает главный герой, назван в честь жены режиссёра Эммы Томас, которая выступила ассоциативным продюсером фильма.
* На оригинальной версии DVD, выпущенной ограниченным тиражом, зритель имеет возможность посмотреть фильм, в котором сцены расставлены согласно хронологическому порядку.
* Перед съёмками сцены драки Леонарда с наркоторговцем Джимми исполнитель роли Джимми Ларри Холден попросил Гая Пирса драться по-настоящему. Пирс, бывший бодибилдер, согласился и основательно помял партнёра.
* Сценарий Кристофера Нолана основан на рассказе «Memento Mori», который написал его брат Джонатан. Но до сих пор «Помни» считается оригинальной постановкой, а не адаптацией лишь потому, что рассказ был опубликован после релиза фильма.





Теперь в МОИХ РАЗДАЧАХ ® "море СЕРЕБРА и ЗОЛОТА", соответственно засчитывается
либо половина закаченного
(СЕРЕБРО), либо вообще не идет в зачет скаченное (ЗОЛОТО)!


piratbit.org



Скачать Помни через торрент http://i8.fastpic.ru/big/2010/0716/2b/3354d2d891c5448017938078663f382b.jpg Скачать фильм Помни через торрент бесплантно в хорошем качестве Описание: Леонард Шелби изысканно и дорого одет, ездит на новеньком «Ягуаре», но проживает в дешевых мотелях. Его цель в жизни  найти ... 10 10 3
Info! Золотая раздача, скачанное не засчитывается.
Торрент: Зарегистрирован [2010-07-16 17:29] · скачан: 133 раз
Статус: √ проверено
Размер: 12.58 GB
Как cкачать? Как скачать Помни через торрент | qTorrent



Последний раз редактировалось: EXEBET (2010-07-16 17:43), всего редактировалось 6 раз(а)

28-11-2019 20:33  

Отключить всю рекламу на сайте

16-07-2010 16:24 Помни Скачать торрент  

Фильм просто супер, от просмотра срывает кришу, васем советуюpiratbit.org



16-07-2010 16:36 Помни Скачать торрент  

chengizzz писал(а):

Фильм просто супер, от просмотра срывает кришу, васем советую

Согласен, стараюсь выкладывать лучшие BDRipы только ШЕДЕВРОВ КИНО.piratbit.org





Последний раз редактировалось: EXEBET (2010-07-16 18:16), всего редактировалось 2 раз(а)

16-07-2010 17:49 Помни Скачать торрент  

Торрент перезалит, обновите торрент файл пожалуйста.
Приношу свои извинения за неудобство.
piratbit.org



16-07-2010 23:30 Помни Скачать торрент  

Фильм точно бомба! Это я chengizzz'у посоветовал! piratbit.org



18-07-2010 05:32 Помни Скачать торрент  

Внимание, до 18.07.2010 включительно проходит голосование в рамках конкурса.

Мои конкурсные раздачи:

http://pb.wtf/viewtopic.php?t=19570
http://pb.wtf/viewtopic.php?t=19459
Голосуйте за оформление этих раздач тут: ЖМИ ССЫЛКУ.

Перейдя по ССЫЛКЕ в самом вверху ставите справа от "EXEBET" отметку и жмите "проголосовать".

Заранее благодарю, за Ваш голос!
piratbit.org



05-05-2016 13:40 Помни Скачать торрент  

спсpiratbit.org



    Дорогой пользователь! Огромная просьба, поблагодарите релизера, оцените раздачу и оставьте свои комментарий, если Вы скачали Помни через торрент бесплатно! Внесите свою лепту в развитие PiratBit!
    Комментировать посты могут только пользователи прошедшие не сложную регистрацию
    Показать сообщения:    

    Помни через торрент
    Скачать бесплатно Помни
    Помни скачать торрент
    Помни смотреть онлайн
    Cкачать фильм Помни бесплатно
    Помни скачать торрент в хорошем качестве
    Помни смотреть онлайн бесплатно в хорошем качестве


    Вы не можете начинать темы
    Вы не можете отвечать на сообщения
    Вы не можете редактировать свои сообщения
    Вы не можете удалять свои сообщения
    Вы не можете голосовать в опросах
    Вы не можете прикреплять файлы к сообщениям
    Вы можете скачивать файлы