Присоединяйтесь к нам в Telegram!, здесь всегда актуальный адрес сайта, оперативная поддержка и многое другое!!

>

5.9

iTunes

7.4

iTunes

9.4

1 сезон

1

7.4

2 сезон

7.2

iTunes

7.3

1 сезон

13

6.1

iTunes

8.3

GOG

30

ULTIMATE

pack

9.9

Лицензия

ВАЖНО

ИГРА 18+

pack

7.3

RePack

MK11

7.7

RePack

jed

7.8

RePack

fifa19

8.5

RePack

RDR2

RePack

NEED FOR SPEED™ PAYBACK

5 сезон

9 сезон

Бесстыжие 9 сезон

Все сериалы

все сериалы на PB.wtf

RePack

FAR CRY 5

Anonymous, добрый день, мы катастрофически не успеваем собрать деньги на оплату серверов, помогите нам пожалуйста 5,10,15р., для нас важна любая помощь . В качестве благодарности мы отключим Вам всю рекламу на сайте (укажите свой ник в строку Ваше имя)!

×
  
Magnet ссылка

Ковбои против динозавров / Cowboys vs Dinosaurs (Эри Новак) [2015, фантастика, боевик, HDRip, Любительский одноголосый [datynet] piratbit.org

Ковбои против динозавров через торрент piratbit.org

Размер: 1.46 GB | Добавлен: 6 лет 1 мес. назад | Торрент скачан:252 раза
Смотреть онлайн Ковбои против динозавров | Скачать    Ребята, помогите собрать деньги на оплату серверов!!!

28-10-2015 12:12 Ковбои против динозавров Скачать торрент  


Ковбои против динозавров / Cowboys vs Dinosaurs


ИНФОРМАЦИЯ:
Год выпуска:2015
Страна: США
Жанр: фантастика, боевик
Продолжительность: 01:29:08
Перевод: Любительский одноголосый [datynet]
Режиссер: Эри Новак

В Ролях:


Эрик Робертс (Trent Walker), Райб Хиллс (Val Walker), Кэйси Фицджералд (Sky), Вернон Уэллс (Marcus), Джон Фриман (Henry), Сара Малакул Лэйн (Dr. Sinclair), Хезер Фут (Jenny), Ник Эндрюс (Digger), Jesse Banthem (Cowboy 1), Стефани Мишелль Боннер (Rhonda), Ричи Бойд (Foreman 2), Janet Cronsell (Laundry Victim)

Описание:
После случайного взрыва на местном руднике, динозавры вышли из-под завалов, чтобы терроризировать маленький западный город. Теперь группа стрелков должна защищать свой дом, чтобы выжить в битве ковбоев против динозавров.

  • Мировая премьера:19 мая 2015

    ТЕХ.ДАННЫЕ:
    Качество: HDRip
    Формат: AVI
    Видео: XviD, 720x400 (16:9), 1851 kbps, 23,976 fps, 0,268 bpp
    Аудио №1: AC3 / 2.0 / 48 kHz / 192 kbps /Russian
    Аудио №2: AC3 / 2.0 / 48 kHz / 192 kbps / English


    General
    Complete name : D:\Торенты\Cowboys.vs.Dinosaurs.2015.L1.HDRip.avi
    Format : AVI
    Format/Info : Audio Video Interleave
    File size : 1.46 GiB
    Duration : 1h 29mn
    Overall bit rate : 2 339 Kbps
    Writing application : VirtualDubMod 1.5.10.3 | www.virtualdub-fr.org || (build 2550/release)
    Writing library : VirtualDubMod build 2550/release

    Video
    ID : 0
    Format : MPEG-4 Visual
    Format profile : Advanced Simple@L5
    Format settings, BVOP : 1
    Format settings, QPel : No
    Format settings, GMC : No warppoints
    Format settings, Matrix : Custom
    Codec ID : XVID
    Codec ID/Hint : XviD
    Duration : 1h 29mn
    Bit rate : 1 852 Kbps
    Width : 720 pixels
    Height : 400 pixels
    Display aspect ratio : 16:9
    Frame rate : 23.976 fps
    Color space : YUV
    Chroma subsampling : 4:2:0
    Bit depth : 8 bits
    Scan type : Progressive
    Compression mode : Lossy
    Bits/(Pixel*Frame) : 0.268
    Stream size : 1.15 GiB (79%)
    Writing library : XviD 73

    Audio #1
    ID : 1
    Format : AC-3
    Format/Info : Audio Coding 3
    Mode extension : CM (complete main)
    Codec ID : 2000
    Duration : 1h 29mn
    Bit rate mode : Constant
    Bit rate : 192 Kbps
    Channel(s) : 2 channels
    Channel positions : Front: L R
    Sampling rate : 48.0 KHz
    Bit depth : 16 bits
    Compression mode : Lossy
    Stream size : 122 MiB (8%)
    Alignment : Split accross interleaves

    Audio #2
    ID : 2
    Format : AC-3
    Format/Info : Audio Coding 3
    Mode extension : CM (complete main)
    Codec ID : 2000
    Duration : 1h 29mn
    Bit rate mode : Constant
    Bit rate : 192 Kbps
    Channel(s) : 2 channels
    Channel positions : Front: L R
    Sampling rate : 48.0 KHz
    Bit depth : 16 bits
    Compression mode : Lossy
    Stream size : 122 MiB (8%)
    Alignment : Split accross interleaves
    Скриншоты:


    © Оформление by Ворон
    piratbit.org



  • Скачать Ковбои против динозавров через торрент https://pic1.kartinco.top/images/61/ordi9.jpg Скачать, смотреть онлайн Ковбои против динозавров бесплантно в хорошем качестве Описание: После случайного взрыва на местном руднике, динозавры вышли из-под завалов, чтобы терроризировать маленький западный город. ... 8.1 10 15
    Торрент: Зарегистрирован [2015-10-28 12:12] · скачан: 252 раз
    Статус: T временная
    Размер: 1.46 GB
    Как cкачать? Как скачать Ковбои против динозавров через торрент | UTorrent

    % Раздел Тема Автор DL S | L
    T Фильмы [HD 720p, 1080p] (Звук Cam, VO, DVO) [ 5.63 GB ] Ковбои против динозавров / Cowboys vs Dinosaurs [2015 BDRip 1080p Любительский одноголосый [datynet] Ворон Скачать
    1 | 0
    T Фильмы 2015 (Звук TS, Cam, VO, DVO) [ 748 MB ] Ковбои против динозавров / Cowboys vs Dinosaurs [2015 DVDRip] VO Ворон Скачать
    1 | 0

    28-11-2019 20:33  

    Отключить всю рекламу на сайте

    28-10-2015 12:20 Ковбои против динозавров Скачать торрент  

    :omg: что только неснимают!piratbit.org



    28-10-2015 14:01 Ковбои против динозавров Скачать торрент  

    "баба яга против фантомаса"piratbit.org



    28-10-2015 14:04 Ковбои против динозавров Скачать торрент  

    Вообще огонь))piratbit.org



    28-10-2015 15:00 Ковбои против динозавров Скачать торрент  

    под пивко пойдет))))piratbit.org



    28-10-2015 16:51 Ковбои против динозавров Скачать торрент  

    SKYHELL писал(а):

    под пивко пойдет))))

    согласен!))))piratbit.org



      Дорогой пользователь! Огромная просьба, поблагодарите релизера, оцените раздачу и оставьте свои комментарий, если Вы скачали Ковбои против динозавров через торрент бесплатно!
      Комментировать посты могут только пользователи прошедшие не сложную регистрацию
      Показать сообщения:    

      Ковбои против динозавров через торрент
      Скачать бесплатно Ковбои против динозавров
      Ковбои против динозавров скачать торрент
      Ковбои против динозавров смотреть онлайн
      Cкачать фильм Ковбои против динозавров бесплатно
      Ковбои против динозавров скачать торрент в хорошем качестве
      Ковбои против динозавров смотреть онлайн бесплатно в хорошем качестве


      Вы не можете начинать темы
      Вы не можете отвечать на сообщения
      Вы не можете редактировать свои сообщения
      Вы не можете удалять свои сообщения
      Вы не можете голосовать в опросах
      Вы не можете прикреплять файлы к сообщениям
      Вы можете скачивать файлы