Присоединяйтесь к нам в Telegram!, здесь всегда актуальный адрес сайта, оперативная поддержка и многое другое!!

>

5.9

iTunes

7.4

iTunes

9.4

1 сезон

1

7.4

2 сезон

7.2

iTunes

7.3

1 сезон

13

6.1

iTunes

8.3

GOG

30

ULTIMATE

pack

9.9

Лицензия

ВАЖНО

ИГРА 18+

pack

7.3

RePack

MK11

7.7

RePack

jed

7.8

RePack

fifa19

8.5

RePack

RDR2

RePack

NEED FOR SPEED™ PAYBACK

5 сезон

9 сезон

Бесстыжие 9 сезон

Все сериалы

все сериалы на PB.wtf

RePack

FAR CRY 5

Anonymous, добрый день, мы катастрофически не успеваем собрать деньги на оплату серверов, помогите нам пожалуйста 5,10,15р., для нас важна любая помощь . В качестве благодарности мы отключим Вам всю рекламу на сайте (укажите свой ник в строку Ваше имя)!

×
  
Magnet ссылка

Достоинство / The Timber (Энтони О’Брайэн) [2015, драма, приключения, вестерн, HDRip, Любительский одноголосый [datynet] piratbit.org

Достоинство через торрент piratbit.org

Размер: 1.37 GB | Добавлен: 6 лет 1 мес. назад | Торрент скачан:212 раз
Смотреть онлайн Достоинство | Скачать    Ребята, помогите собрать деньги на оплату серверов!!!

28-10-2015 17:13 Достоинство Скачать торрент  


Достоинство / The Timber
««Fortunes will be made, lives will be lost»»

ИНФОРМАЦИЯ:
Год выпуска:2015
Страна: США
Жанр: драма, приключения, вестерн
Продолжительность: 01:20:19
Перевод: Любительский одноголосый [datynet]
Режиссер: Энтони О’Брайэн

В Ролях:


Джеймс Рэнсон (Wyatt), Элиза Ласовски, Марк Кавен (Colonel Rupert Thomas), Уильям Гонт, Дэвид Бэйли, Аттила Арпа (Patrick The Bear), Шон О’Хаган (Jim Broadswell), Мариус Флориан (Running man), Разван Георгиу (Guard1), Мария Дойл Кеннеди (Maggie), Джош Пек (Samuel), Alfred Wegeman (Young boy)

Описание:
Год 1889. В ледяной Аляске, во время золотой лихорадки, братья Самуэль (Джош Пек) и Уайетт (Джеймс Рансон) отправляются в опасное путешествие. Для того, чтобы сохранить честь дома, они должны найти тираничного своего отца, который много лет назад их оставил. Впереди у них куча неприятностей с жестокими бандитами. Мрачные сцены и сырой климат меркнут перед алчностью, жажды власти и смерти, с которыми они сталкиваются.

  • Мировая премьера:27 февраля 2015

    ТЕХ.ДАННЫЕ:
    Качество: HDRip
    Формат: AVI
    Видео: XviD, 720x304 (2.35:1), 1882 kbps, 23,976 fps, 0,359 bpp
    Аудио: AC3 / 5.1 / 48 kHz / 448 kbps / 16 bit


    General
    Complete name : D:\Торенты\Dostynsvo.2015.L1.HDRip.avi
    Format : AVI
    Format/Info : Audio Video Interleave
    File size : 1.37 GiB
    Duration : 1h 20mn
    Overall bit rate : 2 436 Kbps
    Writing application : VirtualDubMod 1.5.10.2 (build 2540/release)
    Writing library : VirtualDubMod build 2540/release

    Video
    ID : 0
    Format : MPEG-4 Visual
    Format profile : Advanced Simple@L5
    Format settings, BVOP : 2
    Format settings, QPel : No
    Format settings, GMC : No warppoints
    Format settings, Matrix : Default (MPEG)
    Codec ID : XVID
    Codec ID/Hint : XviD
    Duration : 1h 20mn
    Bit rate : 1 883 Kbps
    Width : 720 pixels
    Height : 304 pixels
    Display aspect ratio : 2.35:1
    Frame rate : 23.976 fps
    Color space : YUV
    Chroma subsampling : 4:2:0
    Bit depth : 8 bits
    Scan type : Progressive
    Compression mode : Lossy
    Bits/(Pixel*Frame) : 0.359
    Stream size : 1.06 GiB (77%)
    Writing library : XviD 1.2.1 (UTC 2008-12-04)

    Audio
    ID : 1
    Format : AC-3
    Format/Info : Audio Coding 3
    Mode extension : CM (complete main)
    Codec ID : 2000
    Duration : 1h 20mn
    Bit rate mode : Constant
    Bit rate : 448 Kbps
    Channel(s) : 6 channels
    Channel positions : Front: L C R, Side: L R, LFE
    Sampling rate : 48.0 KHz
    Bit depth : 16 bits
    Compression mode : Lossy
    Stream size : 257 MiB (18%)
    Alignment : Split accross interleaves
    Скриншоты:


    © Оформление by Ворон
    piratbit.org



  • Скачать Достоинство через торрент https://pic1.kartinco.top/images/61/ordi9.jpg Скачать, смотреть онлайн Достоинство бесплантно в хорошем качестве Описание: Год 1889. В ледяной Аляске, во время золотой лихорадки, братья Самуэль (Джош Пек) и Уайетт (Джеймс Рансон) отправляются в опасное ... 9.9 10 12
    Торрент: Зарегистрирован [2015-10-28 17:13] · скачан: 212 раз
    Статус: T временная
    Размер: 1.37 GB
    Как cкачать? Как скачать Достоинство через торрент | UTorrent

    % Раздел Тема Автор DL S | L
    T Фильмы 2015 [DVDrip, WEB-DLRip, HDrip] [ 1.37 GB ] Достоинство / The Timber [2015 HDRip] многоголосый [Официальный звук] Ворон Скачать
    1 | 0

    28-11-2019 20:33  

    Отключить всю рекламу на сайте

      Дорогой пользователь! Огромная просьба, поблагодарите релизера, оцените раздачу и оставьте свои комментарий, если Вы скачали Достоинство через торрент бесплатно!
      Комментировать посты могут только пользователи прошедшие не сложную регистрацию
      Показать сообщения:    

      Достоинство через торрент
      Скачать бесплатно Достоинство
      Достоинство скачать торрент
      Достоинство смотреть онлайн
      Cкачать фильм Достоинство бесплатно
      Достоинство скачать торрент в хорошем качестве
      Достоинство смотреть онлайн бесплатно в хорошем качестве


      Вы не можете начинать темы
      Вы не можете отвечать на сообщения
      Вы не можете редактировать свои сообщения
      Вы не можете удалять свои сообщения
      Вы не можете голосовать в опросах
      Вы не можете прикреплять файлы к сообщениям
      Вы можете скачивать файлы