Доктор Стрэндж

Лицензия

Добыча

Дубляж

Дом дракона

1 сезон

Тор

Дубляж

В эфире

Дубляж

Там, где раки поют

MVO

Властелин колец

1 сезон

Ultimate

pack

Рекомендуем

30

Пиратка

ВАЖНО

ВАЖНО

Ghostwire

Пиратка

jed

RePack

nioh2

RePack

RDR2

RePack

NEED FOR SPEED™ PAYBACK

RePack

скачать торрент

Кинопоиск HD

Острые козырьки 6 сезон

6 сезон

FAR CRY 6

RePack

скачать торрент

Лицензия

скачать торрент

MVO

1

1 сезон

скачать торрент

1 сезон

скачать торрент

Лицензия

  

Торренте 5: Операция Евровегас / Torrente V: Mision Eurovegas (Сантьяго Сегура) [2014, Боевик, Комедия, BDRip 720p] VO

Торренте 5: Операция Евровегас через торрент piratbit.org

Размер: 6.04 GB | Добавлен: 7 лет назад | Торрент скачан:63 раза
Смотреть онлайн | Скачать   

30-10-2015 07:17 Торренте 5: Операция Евровегас Скачать торрент  

Информация Описание:

Название: Торренте 5: Операция Евровегас

Оригинальное название: Torrente V: Mision Eurovegas

Год выхода: 2014

Страна: Испания

Продолжительность: 01:42:02

Перевод: Любительский (одноголосый) Васька Куролесов по субтитрам МЕГАПЫХАРЬ

Ненорматив!

После титров концовка!

Жанр: Боевик, Комедия

Режиссер: Сантьяго Сегура

В ролях: Сантьяго Сегура, Хулиан Лопес, Хесулин де Убрике, Алек Болдуин, Дамиан Рамос, Луис Карлос, Альваро Тортоза, Каньита Брава, Хосе Мария Рубио

Описание фильма:

На что только не заставит пойти нужда. Герои фильма Торренте 5 решаются на рискованное предприятие. Желание раз и навсегда положить конец проблемам с финансами толкает компанию единомышленников на создание идеального плана обогащения.



Файл

Качество: BDRip 720p
Формат: MKV
Видео: AVC, 7665 Кбит/с, 1280x676, 23.976 fps
Звук: AC-3; ~640 kbps, 48000Hz, 5.1 ch

Семпл
Общее
Уникальный идентификатор : 192606184007150511701516555906175268501 (0x90E69A0AAC37EC398568B7B58A68F695)
Полное имя : D:\Торенты\Torrente.V.Mision.Eurovegas.2014.720p.mkv
Формат : Matroska
Версия формата : Version 4 / Version 2
Размер файла : 6,04 Гбайт
Продолжительность : 1 ч. 42 м.
Общий поток : 8473 Кбит/сек
Название фильма : Torrente.V.Mision.Eurovegas.2014.720p
Дата кодирования : UTC 2015-10-30 01:39:31
Программа кодирования : mkvmerge v8.2.0 ('World of Adventure') 64bit
Библиотека кодирования : libebml v1.3.1 + libmatroska v1.4.2

Видео
Идентификатор : 1
Формат : AVC
Формат/Информация : Advanced Video Codec
Профиль формата : High@L4.1
Параметр CABAC формата : Да
Параметр ReFrames формата : 9 кадров
Идентификатор кодека : V_MPEG4/ISO/AVC
Продолжительность : 1 ч. 42 м.
Битрейт : 7665 Кбит/сек
Ширина : 1280 пикселей
Высота : 676 пикселей
Соотношение сторон : 1,891
Соотношение сторон в оригинале : 1,890
Режим частоты кадров : Постоянный
Частота кадров : 23,976 кадра/сек
Цветовое пространство : YUV
Субдискретизация насыщенности : 4:2:0
Битовая глубина : 8 бит
Тип развёртки : Прогрессивная
Бит/(Пиксели*Кадры) : 0.369
Размер потока : 5,46 Гбайт (90%)
Заголовок : KINONAVSE100.COM
Библиотека кодирования : x264 core 142 r2431+42 c69a006 tMod [8-bit@all X86_64]
Настройки программы : cabac=1 / ref=9 / deblock=1:-3:-3 / analyse=0x3:0x113 / me=tesa / subme=10 / psy=1 / fade_compensate=0.00 / psy_rd=0.95:0.00 / mixed_ref=1 / me_range=48 / chroma_me=1 / trellis=2 / 8x8dct=1 / cqm=0 / deadzone=21,11 / fast_pskip=0 / chroma_qp_offset=-2 / threads=18 / lookahead_threads=3 / sliced_threads=0 / nr=0 / decimate=1 / interlaced=0 / bluray_compat=0 / constrained_intra=0 / fgo=0 / bframes=9 / b_pyramid=2 / b_adapt=2 / b_bias=0 / direct=3 / weightb=1 / open_gop=0 / weightp=2 / keyint=240 / keyint_min=23 / scenecut=40 / intra_refresh=0 / rc_lookahead=60 / rc=crf / mbtree=0 / crf=16.5000 / qcomp=0.65 / qpmin=0:0:0 / qpmax=69:69:69 / qpstep=4 / vbv_maxrate=62500 / vbv_bufsize=78125 / crf_max=0.0 / nal_hrd=none / filler=0 / ip_ratio=1.30 / pb_ratio=1.20 / aq=4:1.00 / aq-sensitivity=10.00 / aq-factor=1.00:1.00:1.00 / aq2=1:0.60 / aq2-sensitivity=15.00 / aq2-factor=1.00:1.00:1.00 / aq3=0
Язык : English
Default : Да
Forced : Нет
Основные цвета : BT.709
Характеристики трансфера : BT.709
Коэффициенты матрицы : BT.709
colour_range : Limited

Аудио
Идентификатор : 2
Формат : AC-3
Формат/Информация : Audio Coding 3
Расширение режима : CM (complete main)
Параметр Endianness формата : Big
Идентификатор кодека : A_AC3
Продолжительность : 1 ч. 42 м.
Вид битрейта : Постоянный
Битрейт : 640 Кбит/сек
Каналы : 6 каналов
Расположение каналов : Front: L C R, Side: L R, LFE
Частота : 48,0 КГц
Битовая глубина : 16 бит
Метод сжатия : С потерями
Размер потока : 467 Мбайт (8%)
Заголовок : Васька Куролесов
Язык : Russian
Default : Да
Forced : Нет

Меню
00:00:00.000 : en:CHAPTER01
00:07:03.465 : en:CHAPTER02
00:15:01.025 : en:CHAPTER03
00:22:36.522 : en:CHAPTER04
00:31:25.550 : en:CHAPTER05
00:38:15.668 : en:CHAPTER06
00:44:27.748 : en:CHAPTER07
00:51:56.905 : en:CHAPTER08
00:58:09.486 : en:CHAPTER09
01:09:38.007 : en:CHAPTER10
01:20:59.605 : en:CHAPTER11
01:32:31.546 : en:CHAPTER12
Релиз:



Скачать Торренте 5: Операция Евровегас через торрент http://i74.fastpic.ru/big/2015/1030/cf/a579aeea7e1a6b480432ae235cc964cf.jpg Скачать, смотреть онлайн Торренте 5: Операция Евровегас бесплантно в хорошем качестве Описание:✦ Название: Торренте 5: Операция Евровегас✦ Оригинальное название: Torrente V: Mision Eurovegas✦ Год выхода: 2014✦ Страна: ... 7.8 10 8
Торрент: Зарегистрирован [2015-10-30 07:17] · скачан: 63 раз
Статус: √ проверено
Размер: 6.04 GB
Как cкачать? Как скачать Торренте 5: Операция Евровегас через торрент | UTorrent

% Раздел Тема Автор DL S | L
Фильмы 2014 (Звук TS, Cam, VO, DVO) [ 1.46 GB ] Торренте 5: Операция Евровегас / Torrente V: Mision Eurovegas | | HDRip Ворон Скачать
1 | 0



Последний раз редактировалось: Ворон (2015-10-30 11:32), всего редактировалось 1 раз

28-11-2019 20:33  


Отключить вcю реклaмy на сайте, в т.ч. и в плеере онлайн просмотра!

30-10-2015 07:27 Торренте 5: Операция Евровегас Скачать торрент  

Рейтинг зашкаливает...



30-10-2015 11:10 Торренте 5: Операция Евровегас Скачать торрент  

А где 1 -2 -3 и 4 части сего шедевра?))



30-10-2015 11:21 Торренте 5: Операция Евровегас Скачать торрент  

PIXELINTERLAN,

http://prntscr.com/8x0ibh
ищите в сети может где и валяются. Но учитывая рейтинг найти будет сложно с сидами такие шедевры.



30-10-2015 11:33 Торренте 5: Операция Евровегас Скачать торрент  

dgp47operatorsmailru писал(а):

Рейтинг зашкаливает...




    Дорогой пользователь! Огромная просьба, поблагодарите релизера, оцените раздачу и оставьте свои комментарий, если Вы скачали Торренте 5: Операция Евровегас через торрент бесплатно!!
    Комментировать посты могут только пользователи прошедшие не сложную регистрацию
    Показать сообщения:    


    Торренте 5: Операция Евровегас через торрент
    Скачать бесплатно Торренте 5: Операция Евровегас
    Торренте 5: Операция Евровегас скачать торрент
    Торренте 5: Операция Евровегас смотреть онлайн
    Cкачать фильм Торренте 5: Операция Евровегас бесплатно
    Торренте 5: Операция Евровегас скачать торрент в хорошем качестве
    Торренте 5: Операция Евровегас смотреть онлайн бесплатно в хорошем качестве
    Вы не можете начинать темы
    Вы не можете отвечать на сообщения
    Вы не можете редактировать свои сообщения
    Вы не можете удалять свои сообщения
    Вы не можете голосовать в опросах
    Вы не можете прикреплять файлы к сообщениям
    Вы можете скачивать файлы
    Торренте 5: Операция Евровегас / Torrente V: Mision Eurovegas [2014, Боевик, Комедия, BDRip 720p] VO смотреть онлайн, скачать торрент picoco.icu