Присоединяйтесь к нам в Telegram!, здесь всегда актуальный адрес сайта, оперативная поддержка и многое другое!!

>

5.9

iTunes

7.4

iTunes

9.4

1 сезон

1

7.4

2 сезон

7.2

iTunes

7.3

iTunes

13

6.1

iTunes

8.3

Пиратка

30

ULTIMATE

pack

9.9

Лицензия

ВАЖНО

ИГРА 18+

pack

7.3

RePack

MK11

7.7

RePack

jed

7.8

RePack

fifa19

8.5

RePack

RDR2

RePack

NEED FOR SPEED™ PAYBACK

5 сезон

9 сезон

Бесстыжие 9 сезон

Все сериалы

все сериалы на PB.wtf

RePack

FAR CRY 5

Anonymous, добрый вечер, мы катастрофически не успеваем собрать деньги на оплату серверов, помогите нам пожалуйста 5,10,15р., для нас важна любая помощь . В качестве благодарности мы отключим Вам всю рекламу на сайте (укажите свой ник в строку Ваше имя)!

×
  
Magnet ссылка

Морские котики против зомби / Navy SEALs vs. Zombies (Стэнтон Баррет) [2015, ужасы, боевик, HDRip, Любительский (двухголосый)(Ох! Студия) и Ворон piratbit.org

Морские котики против зомби через торрент piratbit.org

Размер: 1.45 GB | Добавлен: 6 лет 1 мес. назад | Торрент скачан:200 раз
Смотреть онлайн Морские котики против зомби | Скачать    Ребята, помогите собрать деньги на оплату серверов!!!

04-11-2015 17:59 Морские котики против зомби Скачать торрент  


Морские котики против зомби / Navy SEALs vs. Zombies


ИНФОРМАЦИЯ:
Год выпуска:2015
Страна: США
Жанр: ужасы, боевик
Продолжительность: 01:36:55
Перевод: Любительский (двухголосый)(Ох! Студия) и Ворон
Режиссер: Стэнтон Баррет

В Ролях:


Стефани Онор (Amanda), Джером Эндрис (Navy Officer), Сью-Линн Ансари (Senate Reporter), John Apperson (Zombie / National Guardsman), Назима Бартек (Looter), Джеки Бекер (Emily Prescott), Sara Benjamin (Rebecca Mills), Massimo Dobrovic (Dave), Майкл К. Дуглас (National Guardsman), Майкл Дудикофф (Sheer), Брэндон Фонтенот (Navy Officer), Рик Фокс (Bentley)

Описание:
Когда происходит вспышка смертельной инфекции, превращающей людей в яростных зомби, группа опытных бойцов из отряда «морских котиков» сражается с армией нежити в погружённом в хаос Новом Орлеане за свои жизни и жизни всех жителей города, чтобы не дать вирусу распространиться дальше.

  • Мировая премьера:8 октября 2015

    ТЕХ.ДАННЫЕ:
    Качество: HDRip
    Формат: AVI
    Видео: XviD, 720x400 (16:9), 1598 kbps, 23,976 fps, 0,231 bpp
    Аудио: AC3 / 5.1 / 48 kHz / 448 kbps / 16 bit


    General
    Complete name : D:\Торенты\Navy.Seals.vs.Zombies.2015.L2.HDRip.ExKinoRay.avi
    Format : AVI
    Format/Info : Audio Video Interleave
    File size : 1.45 GiB
    Duration : 1h 36mn
    Overall bit rate : 2 140 Kbps
    Writing application : VirtualDubMod 1.5.10.2 (build 2540/release)
    Writing library : VirtualDubMod build 2540/release

    Video
    ID : 0
    Format : MPEG-4 Visual
    Format profile : Advanced Simple@L5
    Format settings, BVOP : 1
    Format settings, QPel : No
    Format settings, GMC : No warppoints
    Format settings, Matrix : Custom
    Codec ID : XVID
    Codec ID/Hint : XviD
    Duration : 1h 36mn
    Bit rate : 1 598 Kbps
    Width : 720 pixels
    Height : 400 pixels
    Display aspect ratio : 16:9
    Frame rate : 23.976 fps
    Color space : YUV
    Chroma subsampling : 4:2:0
    Bit depth : 8 bits
    Scan type : Progressive
    Compression mode : Lossy
    Bits/(Pixel*Frame) : 0.231
    Stream size : 1.08 GiB (75%)
    Writing library : XviD 73

    Audio
    ID : 1
    Format : AC-3
    Format/Info : Audio Coding 3
    Mode extension : CM (complete main)
    Codec ID : 2000
    Duration : 1h 36mn
    Bit rate mode : Constant
    Bit rate : 448 Kbps
    Channel(s) : 6 channels
    Channel positions : Front: L C R, Side: L R, LFE
    Sampling rate : 48.0 KHz
    Bit depth : 16 bits
    Compression mode : Lossy
    Stream size : 311 MiB (21%)
    Alignment : Split accross interleaves
    Скриншоты:


    © Оформление by Ворон
    piratbit.org



  • Скачать Морские котики против зомби через торрент https://pic1.kartinco.top/images/61/ordi9.jpg Скачать, смотреть онлайн Морские котики против зомби бесплантно в хорошем качестве Описание: Когда происходит вспышка смертельной инфекции, превращающей людей в яростных зомби, группа опытных бойцов из отряда «морских ... 8.5 10 12
    Торрент: Зарегистрирован [2015-11-04 17:59] · скачан: 200 раз
    Статус: T временная
    Размер: 1.45 GB
    Как cкачать? Как скачать Морские котики против зомби через торрент | UTorrent

    % Раздел Тема Автор DL S | L
    Фильмы [HD 720p, 1080p] (Звук Cam, VO, DVO) [ 8.45 GB ] Морские котики против зомби / Navy SEALs vs. Zombies [2015 BDRip 1080p Любительский [ и Ворон] Ворон Скачать
    1 | 0

    28-11-2019 20:33  

    Отключить всю рекламу на сайте

    05-11-2015 01:09 Морские котики против зомби Скачать торрент  

    0 из 10piratbit.org



    05-11-2015 17:02 Морские котики против зомби Скачать торрент  

    режиссер по ходу сидит на очень тяжелой наркоте. Такое можно снять только обдолбившись в ноль. :jest3:piratbit.org



    07-11-2015 14:12 Морские котики против зомби Скачать торрент  

    Рейтинг IMDb: 4.30 )))))
    Майкл Дудикоф слился в отстой...piratbit.org



    07-11-2015 17:18 Морские котики против зомби Скачать торрент  

    Писец! Морские котики против зомби )))) Ахренеть просто можно ! )))piratbit.org



    07-11-2015 17:19 Морские котики против зомби Скачать торрент  

    zik-2 писал(а):

    Рейтинг IMDb: 4.30 )))))
    Майкл Дудикоф слился в отстой...

    +1piratbit.org



    07-11-2015 20:02 Морские котики против зомби Скачать торрент  

    тв3 пляpiratbit.org



      Дорогой пользователь! Огромная просьба, поблагодарите релизера, оцените раздачу и оставьте свои комментарий, если Вы скачали Морские котики против зомби через торрент бесплатно!
      Комментировать посты могут только пользователи прошедшие не сложную регистрацию
      Показать сообщения:    

      Морские котики против зомби через торрент
      Скачать бесплатно Морские котики против зомби
      Морские котики против зомби скачать торрент
      Морские котики против зомби смотреть онлайн
      Cкачать фильм Морские котики против зомби бесплатно
      Морские котики против зомби скачать торрент в хорошем качестве
      Морские котики против зомби смотреть онлайн бесплатно в хорошем качестве


      Вы не можете начинать темы
      Вы не можете отвечать на сообщения
      Вы не можете редактировать свои сообщения
      Вы не можете удалять свои сообщения
      Вы не можете голосовать в опросах
      Вы не можете прикреплять файлы к сообщениям
      Вы можете скачивать файлы