Присоединяйтесь к нам в Telegram!, здесь всегда актуальный адрес сайта, оперативная поддержка и многое другое!!

>

5.9

iTunes

7.4

iTunes

9.4

1 сезон

1

7.4

2 сезон

7.2

iTunes

7.3

1 сезон

13

6.1

iTunes

8.3

GOG

30

ULTIMATE

pack

9.9

Лицензия

ВАЖНО

ИГРА 18+

pack

7.3

RePack

MK11

7.7

RePack

jed

7.8

RePack

fifa19

8.5

RePack

RDR2

RePack

NEED FOR SPEED™ PAYBACK

5 сезон

9 сезон

Бесстыжие 9 сезон

Все сериалы

все сериалы на PB.wtf

RePack

FAR CRY 5

Anonymous, доброй ночи, мы катастрофически не успеваем собрать деньги на оплату серверов, помогите нам пожалуйста 5,10,15р., для нас важна любая помощь . В качестве благодарности мы отключим Вам всю рекламу на сайте (укажите свой ник в строку Ваше имя)!

×
  
Magnet ссылка

Дикий город / Bou Chau Mai Sing (Ринго Лам) [2015, боевик, триллер, криминал, HDRip, Любительский (двухголосый) [2D] piratbit.org

Дикий город через торрент piratbit.org

Размер: 1.37 GB | Добавлен: 6 лет назад | Торрент скачан:218 раз
Смотреть онлайн Дикий город | Скачать    Ребята, помогите собрать деньги на оплату серверов!!!

11-11-2015 12:16 Дикий город Скачать торрент  


Дикий город / Bou Chau Mai Sing


ИНФОРМАЦИЯ:
Год выпуска:2015
Страна: Гонконг
Жанр: боевик, триллер, криминал
Продолжительность: 01:41:25
Перевод: Любительский (двухголосый) [2D]
Режиссер: Ринго Лам

В Ролях:


Луис Ку, Шон Юе, Лия Тун, Сяо-Чуань Чан, Джек Као, Сэм Ли, Филип Нг, Дейв Вон, Саймон Ям

Описание:
Отставной полицейский, содержащий бар, помогает пьяной девушке и привозит ее домой. Когда его брат отправляется, чтобы проводить, проспавшуюся после бурной ночи девушку, на них нападают бандиты и увозят незнакомку в неизвестном направлении. Он бросается ее спасать, понимая, что все больше погружается пучину лжи и преступлений, который он, верный зову полицейского долга, должен будет распутать и восстановить справделивость.

  • Мировая премьера:25 июля 2015

    ТЕХ.ДАННЫЕ:
    Качество: HDRip
    Формат: AVI
    Видео: XviD, 720x304 (2.35:1), 1655 kbps, 24 fps, 0,315 bpp
    Аудио: AC3 / 2.0 / 48 kHz / 192 kbps / 16 bit


    General
    Complete name : D:\Торенты\Wild.City.2015.L2.HDRip.avi
    Format : AVI
    Format/Info : Audio Video Interleave
    File size : 1.37 GiB
    Duration : 1h 41mn
    Overall bit rate : 1 932 Kbps
    Writing application : VirtualDubMod 1.5.10.3 | www.virtualdub-fr.org || (build 2550/release)
    Writing library : VirtualDubMod build 2550/release

    Video
    ID : 0
    Format : MPEG-4 Visual
    Format profile : Advanced Simple@L5
    Format settings, BVOP : 2
    Format settings, QPel : No
    Format settings, GMC : No warppoints
    Format settings, Matrix : Default (MPEG)
    Codec ID : XVID
    Codec ID/Hint : XviD
    Duration : 1h 41mn
    Bit rate : 1 655 Kbps
    Width : 720 pixels
    Height : 304 pixels
    Display aspect ratio : 2.35:1
    Frame rate : 24.000 fps
    Color space : YUV
    Chroma subsampling : 4:2:0
    Bit depth : 8 bits
    Scan type : Progressive
    Compression mode : Lossy
    Bits/(Pixel*Frame) : 0.315
    Stream size : 1.17 GiB (86%)
    Writing library : XviD 73

    Audio
    ID : 1
    Format : AC-3
    Format/Info : Audio Coding 3
    Mode extension : CM (complete main)
    Codec ID : 2000
    Duration : 1h 41mn
    Bit rate mode : Constant
    Bit rate : 192 Kbps
    Channel(s) : 2 channels
    Channel positions : Front: L R
    Sampling rate : 48.0 KHz
    Bit depth : 16 bits
    Compression mode : Lossy
    Stream size : 139 MiB (10%)
    Alignment : Split accross interleaves
    Скриншоты:

    © Оформление by .::Ворон::.
    piratbit.org



  • Скачать Дикий город через торрент https://pic1.kartinco.top/images/61/ordi9.jpg Скачать, смотреть онлайн Дикий город бесплантно в хорошем качестве Описание: Отставной полицейский, содержащий бар, помогает пьяной девушке и привозит ее домой. Когда его брат отправляется, чтобы проводить, ... 10 10 9
    Торрент: Зарегистрирован [2015-11-11 12:16] · скачан: 218 раз
    Статус: T временная
    Размер: 1.37 GB
    Как cкачать? Как скачать Дикий город через торрент | UTorrent

    28-11-2019 20:33  

    Отключить всю рекламу на сайте

      Дорогой пользователь! Огромная просьба, поблагодарите релизера, оцените раздачу и оставьте свои комментарий, если Вы скачали Дикий город через торрент бесплатно!
      Комментировать посты могут только пользователи прошедшие не сложную регистрацию
      Показать сообщения:    

      Дикий город через торрент
      Скачать бесплатно Дикий город
      Дикий город скачать торрент
      Дикий город смотреть онлайн
      Cкачать фильм Дикий город бесплатно
      Дикий город скачать торрент в хорошем качестве
      Дикий город смотреть онлайн бесплатно в хорошем качестве


      Вы не можете начинать темы
      Вы не можете отвечать на сообщения
      Вы не можете редактировать свои сообщения
      Вы не можете удалять свои сообщения
      Вы не можете голосовать в опросах
      Вы не можете прикреплять файлы к сообщениям
      Вы можете скачивать файлы