1 сезон

1 сезон

iTunes

1

iTunes

Кинопоиск HD

iTunes

13

1 сезон

RePack

30

Deluxe

ВАЖНО

ИГРА 18+

pack

RePack

MK11
pack

Легкие деньги

RePack

jed

RePack

fifa19

RePack

RDR2

RePack

NEED FOR SPEED™ PAYBACK

4 сезон

9 сезон

Бесстыжие 9 сезон

Все сериалы

все сериалы на PB.wtf

RePack

FAR CRY 5
  
Magnet ссылка

База «Клейтон» / Basic (Джон МакТирнан) [2003, боевик, триллер, драма, криминал, детектив, BDRip AVC by msltel] DUB, 3 x MVO, 2 x AVO piratbit.org

База «Клейтон» через торрент piratbit.org

Размер: 3.41 GB | Добавлен: 5 лет 5 мес. назад | Торрент скачан:28 раз
Скачать  

12-11-2015 10:47 База «Клейтон» Скачать торрент  

Название: База «Клейтон»
Оригинальное название: Basic
Год выпуска: 2003
Страна: Германия, США
Жанр: боевик, триллер, драма, криминал, детектив
Продолжительность: 01:38:10
Перевод: дублированный, профессиональный многоголосый, авторский

Режиссёр: Джон МакТирнан

В ролях: Джон Траволта, Конни Нильсен, Сэмюэл Л. Джексон, Тим Дэли, Джованни Рибизи, Брайан Ван Холт, Тэй Диггз, Дэш Майок, Кристиан де ла Фуэнте, Розелин Санчес, Гарри Конник мл., Джорджия Хауссерманн, Маргарет Траволта, Дена Джонстон, Ник Лорен, Клифф Флеминг, Стивен Майе, Джонатан Рау, Тейт Рупперт, Тимоти С. Вэстер, Крис Бирн, Кертис Рикс

Описание: Форт «Клейтон» — последняя американская военная база на Панамском канале. Во время секретной тренировочной миссии ураган настигает в джунглях группу спецназовцев и их инструктора Нэйтана Веста. Противоречивые показания двух вернувшихся на базу солдат ещё больше запутывают дело. Для расследования обстоятельств мистического исчезновения отряда приглашают агента отдела по борьбе с наркотиками Харди. Те, кто уцелел, не могут объяснить в наркотиках ли дело или в чём-то другом. Все лгут...



Качество: BDRip AVC Сравнение с исходником
Формат: MKV
Видео: MPEG-4 AVC, 2097 Кбит/с, 1024x428, 23,976 кадра/с
Аудио 1: русский, AC3, 192 kbps, 2 ch, 48 kHz [дублированный]
Аудио 2: русский, AC3, 448 kbps, 6 ch, 48 kHz [профессиональный многоголосый, CP-Digital]
Аудио 3: русский, AC3, 448 kbps, 6 ch, 48 kHz [авторский, Юрий Живов]

Внешние файлы
Аудио: русский, AC3, 384 kbps, 6 ch, 48 kHz [профессиональный многоголосый]
Аудио: русский, AC3, 448 kbps, 6 ch, 48 kHz [профессиональный многоголосый, LDV]
Аудио: русский, AC3, 448 kbps, 6 ch, 48 kHz [авторский, Леонид Володарский]
Аудио: английский, AC3, 448 kbps, 6 ch, 48 kHz [оригинал]
Субтитры: русские
Субтитры: английские
Общее
Полное имя : D:VideoБаза Клейтон.1998.BDRip.AVCБаза Клейтон.1998.AVO.rus.Л.Володарский.ac3
Формат : AC-3
Формат/Информация : Audio Coding 3
Размер файла : 315 Мбайт
Продолжительность : 1 ч. 38 м.
Режим общего битрейта : Постоянный
Общий поток : 448 Кбит/сек

Аудио
Формат : AC-3
Формат/Информация : Audio Coding 3
Расширение режима : CM (complete main)
Параметр Endianness формата : Big
Продолжительность : 1 ч. 38 м.
Вид битрейта : Постоянный
Битрейт : 448 Кбит/сек
Каналы : 6 каналов
Расположение каналов : Front: L C R, Side: L R, LFE
Частота : 48,0 КГц
Метод сжатия : С потерями
Размер потока : 315 Мбайт (100%)

Общее
Уникальный идентификатор : 242976241356006386762556674489266818258 (0xB6CB859B40B5A89F88381AA4372D4CD2)
Полное имя : D:VideoБаза Клейтон.1998.BDRip.AVCБаза Клейтон.1998.BDRip.AVC.mkv
Формат : Matroska
Версия формата : Version 4 / Version 2
Размер файла : 2,23 Гбайт
Продолжительность : 1 ч. 38 м.
Общий поток : 3249 Кбит/сек
Название фильма : BDRip -- STarankov
Дата кодирования : UTC 2015-11-12 09:36:46
Программа кодирования : mkvmerge v8.2.0 ('World of Adventure') 64bit
Библиотека кодирования : libebml v1.3.1 + libmatroska v1.4.2
DURATION : 01:38:10.304000000
NUMBER_OF_FRAMES : 184072
NUMBER_OF_BYTES : 329857024
_STATISTICS_WRITING_APP : mkvmerge v8.2.0 ('World of Adventure') 64bit
_STATISTICS_WRITING_DATE_UTC : 2015-11-12 09:36:46
_STATISTICS_TAGS : BPS DURATION NUMBER_OF_FRAMES NUMBER_OF_BYTES

Видео
Идентификатор : 1
Формат : AVC
Формат/Информация : Advanced Video Codec
Профиль формата : High@L4.1
Параметр CABAC формата : Да
Параметр ReFrames формата : 9 кадров
Идентификатор кодека : V_MPEG4/ISO/AVC
Продолжительность : 1 ч. 38 м.
Битрейт : 2097 Кбит/сек
Ширина : 1024 пикселя
Высота : 426 пикселей
Соотношение сторон : 2,40:1
Режим частоты кадров : Постоянный
Частота кадров : 23,976 кадра/сек
Цветовое пространство : YUV
Субдискретизация насыщенности : 4:2:0
Битовая глубина : 8 бит
Тип развёртки : Прогрессивная
Бит/(Пиксели*Кадры) : 0.200
Размер потока : 1,44 Гбайт (65%)
Библиотека кодирования : x264 core 146 r2538 121396c
Настройки программы : cabac=1 / ref=9 / deblock=1:-2:-2 / analyse=0x3:0x113 / me=umh / subme=10 / psy=1 / psy_rd=1.00:0.15 / mixed_ref=1 / me_range=32 / chroma_me=1 / trellis=2 / 8x8dct=1 / cqm=0 / deadzone=21,11 / fast_pskip=1 / chroma_qp_offset=-3 / threads=6 / lookahead_threads=1 / sliced_threads=0 / nr=0 / decimate=1 / interlaced=0 / bluray_compat=0 / constrained_intra=0 / bframes=10 / b_pyramid=2 / b_adapt=2 / b_bias=0 / direct=1 / weightb=1 / open_gop=0 / weightp=2 / keyint=230 / keyint_min=23 / scenecut=40 / intra_refresh=0 / rc_lookahead=40 / rc=crf / mbtree=0 / crf=19.5 / qcomp=0.60 / qpmin=0 / qpmax=69 / qpstep=4 / vbv_maxrate=40000 / vbv_bufsize=50000 / crf_max=0.0 / nal_hrd=none / filler=0 / ip_ratio=1.40 / pb_ratio=1.30 / aq=1:1.00
Язык : English
Default : Да
Forced : Нет
DURATION : 01:38:10.301000000
NUMBER_OF_FRAMES : 141226
NUMBER_OF_BYTES : 1589596839
_STATISTICS_WRITING_APP : mkvmerge v8.2.0 ('World of Adventure') 64bit
_STATISTICS_WRITING_DATE_UTC : 2015-11-12 09:36:46
_STATISTICS_TAGS : BPS DURATION NUMBER_OF_FRAMES NUMBER_OF_BYTES

Аудио #1
Идентификатор : 2
Формат : AC-3
Формат/Информация : Audio Coding 3
Расширение режима : CM (complete main)
Параметр Endianness формата : Big
Идентификатор кодека : A_AC3
Продолжительность : 1 ч. 38 м.
Вид битрейта : Постоянный
Битрейт : 192 Кбит/сек
Каналы : 2 канала
Расположение каналов : Front: L R
Частота : 48,0 КГц
Метод сжатия : С потерями
Размер потока : 135 Мбайт (6%)
Заголовок : DUB
Язык : Russian
Default : Да
Forced : Нет

Аудио #2
Идентификатор : 3
Формат : AC-3
Формат/Информация : Audio Coding 3
Расширение режима : CM (complete main)
Параметр Endianness формата : Big
Идентификатор кодека : A_AC3
Продолжительность : 1 ч. 38 м.
Вид битрейта : Постоянный
Битрейт : 448 Кбит/сек
Каналы : 6 каналов
Расположение каналов : Front: L C R, Side: L R, LFE
Частота : 48,0 КГц
Метод сжатия : С потерями
Размер потока : 315 Мбайт (14%)
Заголовок : MVO (CP-Digital)
Язык : Russian
Default : Нет
Forced : Нет

Аудио #3
Идентификатор : 4
Формат : AC-3
Формат/Информация : Audio Coding 3
Расширение режима : CM (complete main)
Параметр Endianness формата : Big
Идентификатор кодека : A_AC3
Продолжительность : 1 ч. 38 м.
Вид битрейта : Постоянный
Битрейт : 448 Кбит/сек
Каналы : 6 каналов
Расположение каналов : Front: L C R, Side: L R, LFE
Частота : 48,0 КГц
Метод сжатия : С потерями
Размер потока : 315 Мбайт (14%)
Заголовок : AVO (Юрий Живов)
Язык : Russian
Default : Нет
Forced : Нет

Общее
Полное имя : D:VideoБаза Клейтон.1998.BDRip.AVCБаза Клейтон.1998.eng.srt
Формат : SubRip
Размер файла : 99,2 Кбайт

Текст
Формат : SubRip
Метод сжатия : Без потерь

Общее
Полное имя : D:VideoБаза Клейтон.1998.BDRip.AVCБаза Клейтон.1998.MVO.rus.ac3
Формат : AC-3
Формат/Информация : Audio Coding 3
Размер файла : 270 Мбайт
Продолжительность : 1 ч. 38 м.
Режим общего битрейта : Постоянный
Общий поток : 384 Кбит/сек

Аудио
Формат : AC-3
Формат/Информация : Audio Coding 3
Расширение режима : CM (complete main)
Параметр Endianness формата : Big
Продолжительность : 1 ч. 38 м.
Вид битрейта : Постоянный
Битрейт : 384 Кбит/сек
Каналы : 6 каналов
Расположение каналов : Front: L C R, Side: L R, LFE
Частота : 48,0 КГц
Метод сжатия : С потерями
Размер потока : 270 Мбайт (100%)

Общее
Полное имя : D:VideoБаза Клейтон.1998.BDRip.AVCБаза Клейтон.1998.MVO.rus.LDV.ac3
Формат : AC-3
Формат/Информация : Audio Coding 3
Размер файла : 316 Мбайт
Продолжительность : 1 ч. 38 м.
Режим общего битрейта : Постоянный
Общий поток : 448 Кбит/сек

Аудио
Формат : AC-3
Формат/Информация : Audio Coding 3
Расширение режима : CM (complete main)
Параметр Endianness формата : Big
Продолжительность : 1 ч. 38 м.
Вид битрейта : Постоянный
Битрейт : 448 Кбит/сек
Каналы : 6 каналов
Расположение каналов : Front: L C R, Side: L R, LFE
Частота : 48,0 КГц
Метод сжатия : С потерями
Размер потока : 316 Мбайт (100%)

Общее
Полное имя : D:VideoБаза Клейтон.1998.BDRip.AVCБаза Клейтон.1998.Original.eng.ac3
Формат : AC-3
Формат/Информация : Audio Coding 3
Размер файла : 315 Мбайт
Продолжительность : 1 ч. 38 м.
Режим общего битрейта : Постоянный
Общий поток : 448 Кбит/сек

Аудио
Формат : AC-3
Формат/Информация : Audio Coding 3
Расширение режима : CM (complete main)
Параметр Endianness формата : Big
Продолжительность : 1 ч. 38 м.
Вид битрейта : Постоянный
Битрейт : 448 Кбит/сек
Каналы : 6 каналов
Расположение каналов : Front: L C R, Side: L R, LFE
Частота : 48,0 КГц
Метод сжатия : С потерями
Размер потока : 315 Мбайт (100%)

Общее
Полное имя : D:VideoБаза Клейтон.1998.BDRip.AVCБаза Клейтон.1998.rus.srt
Формат : SubRip
Размер файла : 121 Кбайт

Текст
Формат : SubRip
Метод сжатия : Без потерь
piratbit.org



Скачать База «Клейтон» через торрент http://s015.radikal.ru/i333/1511/9a/b4dccafecf8c.png Скачать фильм База «Клейтон» через торрент бесплантно в хорошем качестве Описание: Форт «Клейтон» — последняя американская военная база на Панамском канале. Во время секретной тренировочной миссии ураган ... 10 10 1
Info! Золотая раздача, скачанное не засчитывается.
Торрент: Зарегистрирован [2015-11-12 10:47] · скачан: 28 раз
Статус: √ проверено
Размер: 3.41 GB
Как cкачать? Как скачать База «Клейтон» через торрент | UTorrent

% Раздел Тема Автор DL S | L
Фильмы [HD 720p, 1080p] (Хороший звук DUB, MVO) [ 11.37 GB ] База «Клейтон» / Basic [2003 BDRip 1080p by msltel] DUB 3 x MVO 2 x AVO msltel Скачать
1 | 0
Фильмы [HD 720p, 1080p] (Хороший звук DUB, MVO) [ 4.69 GB ] База «Клейтон» / Basic [2003 BDRip 720p by msltel] DUB 3 x MVO 2 x AVO msltel Скачать
1 | 0

28-11-2019 20:33  

Отключить всю рекламу на сайте

    Дорогой пользователь! Огромная просьба, поблагодарите релизера, оцените раздачу и оставьте свои комментарий, если Вы скачали База «Клейтон» через торрент бесплатно! Внесите свою лепту в развитие PiratBit!
    Комментировать посты могут только пользователи прошедшие не сложную регистрацию
    Показать сообщения:    

    База «Клейтон» через торрент
    Скачать бесплатно База «Клейтон»
    База «Клейтон» скачать торрент
    База «Клейтон» смотреть онлайн
    Cкачать фильм База «Клейтон» бесплатно
    База «Клейтон» скачать торрент в хорошем качестве
    База «Клейтон» смотреть онлайн бесплатно в хорошем качестве


    Вы не можете начинать темы
    Вы не можете отвечать на сообщения
    Вы не можете редактировать свои сообщения
    Вы не можете удалять свои сообщения
    Вы не можете голосовать в опросах
    Вы не можете прикреплять файлы к сообщениям
    Вы можете скачивать файлы