Доктор Стрэндж

Лицензия

Добыча

Дубляж

Дом дракона

1 сезон

Тор

Дубляж

В эфире

Дубляж

Там, где раки поют

MVO

Властелин колец

1 сезон

Ultimate

pack

Рекомендуем

30

Пиратка

ВАЖНО

ВАЖНО

Ghostwire

Пиратка

jed

RePack

nioh2

RePack

RDR2

RePack

NEED FOR SPEED™ PAYBACK

RePack

скачать торрент

Кинопоиск HD

Острые козырьки 6 сезон

6 сезон

FAR CRY 6

RePack

скачать торрент

Лицензия

скачать торрент

MVO

1

1 сезон

скачать торрент

1 сезон

скачать торрент

Лицензия

  

Вой / Howl (Пол Хайет) [2015, ужасы, BDRip 1080p] Любительский (одноголосый) [Paul Bunyan]

Вой через торрент piratbit.org

Размер: 7.88 GB | Добавлен: 7 лет назад | Торрент скачан:163 раза
Смотреть онлайн | Скачать   

12-11-2015 14:42 Вой Скачать торрент  

Вой / Howl

  • Год выхода: 2015
  • Жанр: ужасы

  • Страна: Великобритания
  • Продолжительность: 01:32:24
  • Перевод: Любительский (одноголосый) [Paul Bunyan]
  • Режиссер: Пол Хайет
  • В ролях:

    Эдвард Спелирс (Joe), Холли Уэстон (Ellen), Эллиот Кауэн (Adrian), Амит Шах (Matthew), Сэм Гиттинс (Billy), Шона МакДональд (Kate), Дункан Престон (Ged), Аня Марсон (Jenny), Рози Дэй (Nina), Кэлвин Дин (Paul), Шон Пертуи (Tony), Бретт Голдстин (David)


  • После того, как зверь напал на пассажиров поезда, им нужно объединиться, чтобы дожить до утра.
    семпл
  • Качество: BDRip 1080p
  • Формат: MKV
  • Видео кодек: AVC
  • Аудио кодек: AC3, DTS
  • Видео: AVC, 1920x800 (2.40:1), 8496 kbps, 24 fps, 0,230 bpp
  • Аудио №1: русский / DTS / 5.1 / 48 kHz / 1510 kbps / 24 bit |VO [Paul Bunyan]|
  • Аудио №2: русский / AC3 / 5.1 / 48 kHz / 448 kbps / 16 bit |VO [Paul Bunyan]|
  • Аудио №3: английский / DTS / 5.1 / 48 kHz / 1510 kbps / 24 bit
  • Навигация по главам: есть
  • Релиз от: thx: V_ad

    Код:

    General
    Unique ID                                : 189850725519599699466880456289922285304 (0x8ED3EB730B4B33E497820A8B92FB7EF8)
    Complete name                            : H:\Howl.2015.BDRip.1080p.HDR.mkv
    Format                                   : Matroska
    Format version                           : Version 2
    File size                                : 7.88 GiB
    Duration                                 : 1h 32mn
    Overall bit rate                         : 12.2 Mbps
    Movie name                               : ~V~
    Encoded date                             : UTC 2015-11-12 11:58:36
    Writing application                      : mkvmerge v6.5.0 ('Isn't she lovely') built on Oct 20 2013 12:50:05
    Writing library                          : libebml v1.3.0 + libmatroska v1.4.1

    Video
    ID                                       : 1
    Format                                   : AVC
    Format/Info                              : Advanced Video Codec
    Format profile                           : High@L4.1
    Format settings, CABAC                   : Yes
    Format settings, ReFrames                : 5 frames
    Codec ID                                 : V_MPEG4/ISO/AVC
    Duration                                 : 1h 32mn
    Bit rate                                 : 8 497 Kbps
    Width                                    : 1 920 pixels
    Height                                   : 800 pixels
    Display aspect ratio                     : 2.40:1
    Frame rate                               : 24.000 fps
    Color space                              : YUV
    Chroma subsampling                       : 4:2:0
    Bit depth                                : 8 bits
    Scan type                                : Progressive
    Bits/(Pixel*Frame)                       : 0.230
    Stream size                              : 5.48 GiB (70%)
    Writing library                          : x264 core 146 r2538 121396c
    Encoding settings                        : cabac=1 / ref=5 / deblock=1:-3:-3 / analyse=0x3:0x133 / me=umh / subme=11 / psy=1 / psy_rd=1.00:0.00 / mixed_ref=1 / me_range=32 / chroma_me=1 / trellis=2 / 8x8dct=1 / cqm=0 / deadzone=21,11 / fast_pskip=0 / chroma_qp_offset=-2 / threads=12 / lookahead_threads=1 / sliced_threads=0 / nr=0 / decimate=0 / interlaced=0 / bluray_compat=0 / constrained_intra=0 / bframes=8 / b_pyramid=2 / b_adapt=2 / b_bias=0 / direct=1 / weightb=1 / open_gop=0 / weightp=2 / keyint=240 / keyint_min=23 / scenecut=40 / intra_refresh=0 / rc=crf / mbtree=0 / crf=15.0 / qcomp=0.60 / qpmin=0 / qpmax=69 / qpstep=4 / ip_ratio=1.40 / pb_ratio=1.30 / aq=1:1.00
    Language                                 : English
    Default                                  : Yes
    Forced                                   : No

    Audio #1
    ID                                       : 2
    Format                                   : DTS
    Format/Info                              : Digital Theater Systems
    Codec ID                                 : A_DTS
    Duration                                 : 1h 32mn
    Bit rate mode                            : Constant
    Bit rate                                 : 1 510 Kbps
    Channel(s)                               : 6 channels
    Channel positions                        : Front: L C R, Side: L R, LFE
    Sampling rate                            : 48.0 KHz
    Bit depth                                : 24 bits
    Compression mode                         : Lossy
    Stream size                              : 998 MiB (12%)
    Title                                    : VO[Paul Bunyan]
    Language                                 : Russian
    Default                                  : No
    Forced                                   : No

    Audio #2
    ID                                       : 3
    Format                                   : AC-3
    Format/Info                              : Audio Coding 3
    Mode extension                           : CM (complete main)
    Codec ID                                 : A_AC3
    Duration                                 : 1h 32mn
    Bit rate mode                            : Constant
    Bit rate                                 : 448 Kbps
    Channel(s)                               : 6 channels
    Channel positions                        : Front: L C R, Side: L R, LFE
    Sampling rate                            : 48.0 KHz
    Bit depth                                : 16 bits
    Compression mode                         : Lossy
    Stream size                              : 296 MiB (4%)
    Title                                    : VO[Paul Bunyan]
    Language                                 : Russian
    Default                                  : Yes
    Forced                                   : Yes

    Audio #3
    ID                                       : 4
    Format                                   : DTS
    Format/Info                              : Digital Theater Systems
    Codec ID                                 : A_DTS
    Duration                                 : 1h 32mn
    Bit rate mode                            : Constant
    Bit rate                                 : 1 510 Kbps
    Channel(s)                               : 6 channels
    Channel positions                        : Front: L C R, Side: L R, LFE
    Sampling rate                            : 48.0 KHz
    Bit depth                                : 24 bits
    Compression mode                         : Lossy
    Stream size                              : 998 MiB (12%)
    Language                                 : English
    Default                                  : No
    Forced                                   : No

    Menu
    00:00:00.000                             : en:00:00:00.000
    00:03:31.500                             : en:00:03:31.500
    00:11:11.500                             : en:00:11:11.500
    00:19:36.500                             : en:00:19:36.500
    00:25:55.500                             : en:00:25:55.500
    00:35:25.500                             : en:00:35:25.500
    00:45:28.917                             : en:00:45:28.917
    00:52:24.500                             : en:00:52:24.500
    01:00:43.500                             : en:01:00:43.500
    01:10:11.500                             : en:01:10:11.500
    01:19:28.500                             : en:01:19:28.500
    01:28:19.500                             : en:01:28:19.500

    Скриншоты:


    © Оформление by -Lexx-



  • Скачать Вой через торрент https://pic1.kartinco.top/images/61/stazu.jpg Скачать, смотреть онлайн Вой бесплантно в хорошем качестве qw.png После того, как зверь напал на пассажиров поезда, им нужно объединиться, чтобы дожить до утра.семпл ... 10 10 12
    Info! Золотая раздача, скачанное не засчитывается.
    Торрент: Зарегистрирован [2015-11-12 14:42] · скачан: 163 раз
    Статус: T временная
    Размер: 7.88 GB
    Как cкачать? Как скачать Вой через торрент | UTorrent

    % Раздел Тема Автор DL S | L
    T Фильмы 2015 (Звук TS, Cam, VO, DVO) [ 1.36 GB ] Вой / Howl | | HDRip Ворон Скачать
    1 | 0
    T Фильмы 2015 (Звук TS, Cam, VO, DVO) [ 1.44 GB ] Вой / Howl | | HDRip -Lexx- Скачать
    1 | 0
    Фильмы без перевода [ 707 MB ] Вой / Howl | | DLRip makarevich Скачать
    1 | 0



    Последний раз редактировалось: -Lexx- (2015-11-12 18:42), всего редактировалось 1 раз

    28-11-2019 20:33  


    Отключить вcю реклaмy на сайте, в т.ч. и в плеере онлайн просмотра!

    12-11-2015 15:14 Вой Скачать торрент  

    Описание фильма просто шик



    12-11-2015 16:10 Вой Скачать торрент  

    Pavlin писал(а):

    Описание фильма просто шик

    Весь сюжет в одном предложении. Краткость - сестра таланта. wink



    12-11-2015 16:42 Вой Скачать торрент  

    Тема сисек не раскрыта.



    12-11-2015 16:59 Вой Скачать торрент  

    tur-1953 писал(а):

    Тема сисек не раскрыта.

    снято британцами ,тебе лучше смотреть картины снятые немецкими умельцами



    12-11-2015 17:08 Вой Скачать торрент  

    чего прицепились, описалово как описалово, ну неча человеку больше рассказать..



    13-11-2015 13:11 Вой Скачать торрент  

    Фильм не срашный и нудноватый!



    13-11-2015 21:30 Вой Скачать торрент  

    пересмотрю лучше "Псы-воины" сначала, потом этот :sarcastic_blum:



    16-11-2015 05:54 Вой Скачать торрент  

    Ух какая женщина на скрине 4 справа :jest3:



      Дорогой пользователь! Огромная просьба, поблагодарите релизера, оцените раздачу и оставьте свои комментарий, если Вы скачали Вой через торрент бесплатно!!
      Комментировать посты могут только пользователи прошедшие не сложную регистрацию
      Показать сообщения:    


      Вой через торрент
      Скачать бесплатно Вой
      Вой скачать торрент
      Вой смотреть онлайн
      Cкачать фильм Вой бесплатно
      Вой скачать торрент в хорошем качестве
      Вой смотреть онлайн бесплатно в хорошем качестве
      Вы не можете начинать темы
      Вы не можете отвечать на сообщения
      Вы не можете редактировать свои сообщения
      Вы не можете удалять свои сообщения
      Вы не можете голосовать в опросах
      Вы не можете прикреплять файлы к сообщениям
      Вы можете скачивать файлы
      Вой / Howl [2015, ужасы, BDRip 1080p] Любительский [Paul Bunyan] смотреть онлайн, скачать торрент picoco.icu