Присоединяйтесь к нам в Telegram!, здесь всегда актуальный адрес сайта, оперативная поддержка и многое другое!!

>

5.9

iTunes

7.4

iTunes

9.4

1 сезон

1

7.4

2 сезон

7.2

iTunes

7.3

1 сезон

13

6.1

iTunes

8.3

Пиратка

30

ULTIMATE

pack

9.9

Лицензия

ВАЖНО

ИГРА 18+

pack

7.3

RePack

MK11

7.7

RePack

jed

7.8

RePack

fifa19

8.5

RePack

RDR2

RePack

NEED FOR SPEED™ PAYBACK

5 сезон

9 сезон

Бесстыжие 9 сезон

Все сериалы

все сериалы на PB.wtf

RePack

FAR CRY 5

Anonymous, добрый вечер, мы катастрофически не успеваем собрать деньги на оплату серверов, помогите нам пожалуйста 5,10,15р., для нас важна любая помощь . В качестве благодарности мы отключим Вам всю рекламу на сайте (укажите свой ник в строку Ваше имя)!

×
  
Magnet ссылка

Вой / Howl (Пол Хайет) [2015, ужасы, HDRip] Любительский (одноголосый) [Paul Bunyan] piratbit.org

Вой через торрент piratbit.org

Размер: 1.44 GB | Добавлен: 6 лет назад | Торрент скачан:382 раза
Смотреть онлайн Вой | Скачать    Ребята, помогите собрать деньги на оплату серверов!!!

12-11-2015 18:27 Вой Скачать торрент  

Вой / Howl

  • Год выхода: 2015
  • Жанр: ужасы

  • Страна: Великобритания
  • Продолжительность: 01:32:24
  • Перевод: Любительский (одноголосый) [Paul Bunyan]
  • Режиссер: Пол Хайет
  • В ролях:

    Эдвард Спелирс (Joe), Холли Уэстон (Ellen), Эллиот Кауэн (Adrian), Амит Шах (Matthew), Сэм Гиттинс (Billy), Шона МакДональд (Kate), Дункан Престон (Ged), Аня Марсон (Jenny), Рози Дэй (Nina), Кэлвин Дин (Paul), Шон Пертуи (Tony), Бретт Голдстин (David)


  • После того, как зверь напал на пассажиров поезда, им нужно объединиться, чтобы дожить до утра.

  • Качество: HDRip
  • Формат: AVI
  • Видео кодек: XviD
  • Аудио кодек: AC3
  • Видео: XviD, 720x304 (2.35:1), 1779 kbps, 24 fps, 0,339 bpp
  • Аудио: AC3 / 5.1 / 48 kHz / 448 kbps / 16 bit

    Код:

    General
    Complete name                            : H:\Voj.2015.L1.HDRip.avi
    Format                                   : AVI
    Format/Info                              : Audio Video Interleave
    File size                                : 1.44 GiB
    Duration                                 : 1h 32mn
    Overall bit rate                         : 2 237 Kbps
    Writing application                      : VirtualDubMod 1.5.10.3 | www.virtualdub-fr.org || (build 2550/release)
    Writing library                          : VirtualDubMod build 2550/release

    Video
    ID                                       : 0
    Format                                   : MPEG-4 Visual
    Format profile                           : Advanced Simple@L5
    Format settings, BVOP                    : 1
    Format settings, QPel                    : No
    Format settings, GMC                     : No warppoints
    Format settings, Matrix                  : Custom
    Codec ID                                 : XVID
    Codec ID/Hint                            : XviD
    Duration                                 : 1h 32mn
    Bit rate                                 : 1 779 Kbps
    Width                                    : 720 pixels
    Height                                   : 304 pixels
    Display aspect ratio                     : 2.35:1
    Frame rate                               : 24.000 fps
    Color space                              : YUV
    Chroma subsampling                       : 4:2:0
    Bit depth                                : 8 bits
    Scan type                                : Progressive
    Compression mode                         : Lossy
    Bits/(Pixel*Frame)                       : 0.339
    Stream size                              : 1.15 GiB (80%)
    Writing library                          : XviD 73

    Audio
    ID                                       : 1
    Format                                   : AC-3
    Format/Info                              : Audio Coding 3
    Mode extension                           : CM (complete main)
    Codec ID                                 : 2000
    Duration                                 : 1h 32mn
    Bit rate mode                            : Constant
    Bit rate                                 : 448 Kbps
    Channel(s)                               : 6 channels
    Channel positions                        : Front: L C R, Side: L R, LFE
    Sampling rate                            : 48.0 KHz
    Bit depth                                : 16 bits
    Compression mode                         : Lossy
    Stream size                              : 296 MiB (20%)
    Alignment                                : Split accross interleaves
    Interleave, duration                     : 42 ms (1.00 video frame)
    Interleave, preload duration             : 500 ms

    Скриншоты:


    © Оформление by -Lexx- piratbit.org



  • Скачать Вой через торрент https://pic1.kartinco.top/images/61/stazu.jpg Скачать, смотреть онлайн Вой бесплантно в хорошем качестве qw.png После того, как зверь напал на пассажиров поезда, им нужно объединиться, чтобы дожить до утра. ... 8.9 10 9
    Торрент: Зарегистрирован [2015-11-12 18:27] · скачан: 382 раз
    Статус: T временная
    Размер: 1.44 GB
    Как cкачать? Как скачать Вой через торрент | UTorrent

    % Раздел Тема Автор DL S | L
    Фильмы [HD 720p, 1080p] (Хороший звук DUB, MVO) [ 4.51 GB ] Вой / The Howling [1981 BDRip 720p by msltel] MVO AVO msltel Скачать
    1 | 0
    Фильмы [HD 720p, 1080p] (Хороший звук DUB, MVO) [ 11.61 GB ] Вой / The Howling [1981 BDRip 1080p by msltel] MVO AVO msltel Скачать
    1 | 0
    Гонзо [ 1.1 GB ] Подростки отраханы во все дырки / Teens Fucked In Every Hole [2015 Teens All Sex Anal WEB-DLRip Оригинальный] Pir@tya2010 Скачать
    1 | 0
    T Фильмы 2015 (Звук TS, Cam, VO, DVO) [ 1.36 GB ] Вой / Howl [2015 HDRip] Любительский двухголосый [Sunshine Studio] Ворон Скачать
    1 | 0
    Документальные фильмы 3D [ 12.73 GB ] На глубине в 3Д / Into the Deep 3D [1994 Документальный Видовой BDremux 1080p] IMAX VO BD3D кэп Скачать
    1 | 0
    T Фильмы [HD 720p, 1080p] (Звук Cam, VO, DVO) [ 7.88 GB ] Вой / Howl [2015 BDRip 1080p] Любительский [Paul Bunyan] -Lexx- Скачать
    1 | 0
    Фильмы без перевода [ 707 MB ] Вой / Howl [2015 WEB-DLRip] Перевод отсутствует [Оригинал Eng] makarevich Скачать
    1 | 0


    Последний раз редактировалось: -Lexx- (2015-11-12 18:41), всего редактировалось 1 раз

    28-11-2019 20:33  

    Отключить всю рекламу на сайте

    12-11-2015 18:36 Вой Скачать торрент  

    и как фильм, стоит посмотреть?piratbit.org



    12-11-2015 18:47 Вой Скачать торрент  

    по трейлеру вообще отлично пашёл смотреть пасибо админамpiratbit.org



    12-11-2015 20:07 Вой Скачать торрент  

    такой семпл я каждый день в электричке вижу ездя на работуpiratbit.org



    12-11-2015 20:37 Вой Скачать торрент  

    Цитата:

    Вой / Howl (Пол Хайет) [2015, ужасы, HDRip] Любительский (одноголосый) [Paul Bunyan]

    SR писал(а):

    и как фильм, стоит посмотреть?

    посматрел зря потраченное времяpiratbit.org



    13-11-2015 11:03 Вой Скачать торрент  

    Такая чушь.Смотреть не советую.Еле-еле на перемотке до конца досмотрел.
    Жаль потраченного времени.piratbit.org



    13-11-2015 11:20 Вой Скачать торрент  

    Зверь, поезд... Ну понятно!)))) Ещё ты маршрутку с водителем иностранцем приплели!)))piratbit.org



    13-11-2015 13:13 Вой Скачать торрент  

    Фильм не срашный и нудный!piratbit.org



    14-11-2015 05:20 Вой Скачать торрент  

    вам постоянно ненравиться ничего снимите сами что т одиванные аналитики ненавижу вас ! не слушайе некого отличный фильм ребятаpiratbit.org



      Дорогой пользователь! Огромная просьба, поблагодарите релизера, оцените раздачу и оставьте свои комментарий, если Вы скачали Вой через торрент бесплатно!
      Комментировать посты могут только пользователи прошедшие не сложную регистрацию
      Показать сообщения:    

      Вой через торрент
      Скачать бесплатно Вой
      Вой скачать торрент
      Вой смотреть онлайн
      Cкачать фильм Вой бесплатно
      Вой скачать торрент в хорошем качестве
      Вой смотреть онлайн бесплатно в хорошем качестве


      Вы не можете начинать темы
      Вы не можете отвечать на сообщения
      Вы не можете редактировать свои сообщения
      Вы не можете удалять свои сообщения
      Вы не можете голосовать в опросах
      Вы не можете прикреплять файлы к сообщениям
      Вы можете скачивать файлы