Доктор Стрэндж

Лицензия

Добыча

MVO

Дом дракона

1 сезон

Тор

Лицензия

Мэверик

Лицензия

Там, где раки поют

MVO

Властелин колец

1 сезон

Ultimate

pack

Рекомендуем

30

Repack

ВАЖНО

ВАЖНО

Ghostwire

RePack

jed

RePack

nioh2

RePack

RDR2

RePack

NEED FOR SPEED™ PAYBACK

RePack

скачать торрент

Кинопоиск HD

Острые козырьки 6 сезон

6 сезон

FAR CRY 6

RePack

скачать торрент

Лицензия

скачать торрент

MVO

1

1 сезон

скачать торрент

1 сезон

скачать торрент

Лицензия

  

Не бойся, я с тобой! (Юлий Гусман) [1981, СССР, мюзикл, боевик, мелодрама, комедия, приключения, HDTVRip от AVP Studio]

Не бойся, я с тобой! через торрент piratbit.org

Размер: 2.18 GB | Добавлен: 6 лет 10 мес. назад | Торрент скачан:64 раза
Смотреть онлайн Не бойся, я с тобой! | Скачать   

15-11-2015 10:08 Не бойся, я с тобой! Скачать торрент  

Не бойся, я с тобой!
Страна: СССР
Производство: Азербайджанфильм

Жанр: мюзикл, боевик, мелодрама, комедия, приключения
Год выпуска: 1981
Продолжительность: 02:25:45

Перевод: Не требуется
Cубтитры: нет
Оригинальная аудиодорожка: русский

Режиссер: Юлий Гусман

В ролях:
Мухтарбек Кантемиров, Лев Дуров, Полад Бюль-Бюль оглы, Гамида Омарова, Гасанага Турабов, Мирза Бабаев, Сергей Юрский, Мухтар Маниев, Александр Шаровский, Джафар Новрузов, Насиба Зейналова, Садых Гусейнов...
Полный список актёров

Описание:
Начало XX века. Российская империя, Азербайджан.
Герои фильма, артисты цирка Рустам и Сан Саныч, приезжают на родину Рустама. Втянутые, помимо своей воли, в любовную историю певца Теймура и дочери Фарзали-бека Телли, они помогают им обмануть жадного отца девушки...

Источник: HDTV 1080i
Качество видео: HDTVRip
Формат видео: AVI

Видео: 720x544 (4:3), 25 fps, XviD ~ 1938 kbps avg, 0.198 bit/pixel
Аудио: 48 kHz, Dolby Digital AC3 2.0, 192 kbps

Раздача от:
Общее
Полное имя : Ne.boysya,ya.s.toboy!1981.HDTVRip_[New-team]_by_AVP_Studio.avi
Формат : AVI
Формат/Информация : Audio Video Interleave
Профиль формата : OpenDML
Размер файла : 2,18 Гбайт
Продолжительность : 2 ч. 25 м.
Общий поток : 2142 Кбит/сек
Программа кодирования : VirtualDubMod 1.5.10.3 | www.virtualdub-fr.org || (build 2550/release)
Библиотека кодирования : VirtualDubMod build 2550/release

Видео
Идентификатор : 0
Формат : MPEG-4 Visual
Профиль формата : Advanced Simple@L5
Параметр BVOP формата : 1
Параметр QPel формата : Нет
Параметр GMC формата : Без точки перехода
Параметр матрицы формата : Выборочная
Идентификатор кодека : XVID
Идентификатор кодека/Подсказка : XviD
Продолжительность : 2 ч. 25 м.
Битрейт : 1938 Кбит/сек
Ширина : 720 пикселей
Высота : 544 пикселя
Соотношение сторон : 4:3
Частота кадров : 25,000 кадров/сек
Цветовое пространство : YUV
Субдискретизация насыщенности : 4:2:0
Битовая глубина : 8 бит
Тип развёртки : Прогрессивная
Метод сжатия : С потерями
Бит/(Пиксели*Кадры) : 0.198
Размер потока : 1,97 Гбайт (90%)
Библиотека кодирования : XviD 73

Аудио
Идентификатор : 1
Формат : AC-3
Формат/Информация : Audio Coding 3
Расширение режима : CM (complete main)
Параметр Endianness формата : Big
Идентификатор кодека : 2000
Продолжительность : 2 ч. 25 м.
Вид битрейта : Постоянный
Битрейт : 192 Кбит/сек
Каналы : 2 канала
Расположение каналов : Front: L R
Частота : 48,0 КГц
Метод сжатия : С потерями
Размер потока : 200 Мбайт (9%)
Выравнивание : Разделение по промежуткам
Продолжительность промежутка : 40 мс. (1,00 видеокадр)
Время предзагрузки промежутка : 500 мс



Скачать Не бойся, я с тобой! через торрент http://i6-imageban-ru.translate.goog/out/2015/11/15/3592797b2bf66aca224f6478d47679e5.png Скачать, смотреть онлайн Не бойся, я с тобой! бесплантно в хорошем качестве Описание:Начало XX века. Российская империя, Азербайджан.Герои фильма, артисты цирка Рустам и Сан Саныч, приезжают на родину Рустама. ... 10 10 5
Торрент: Зарегистрирован [2015-11-15 10:08] · скачан: 64 раз
Статус: √ проверено
Размер: 2.18 GB
Как cкачать? Как скачать Не бойся, я с тобой! через торрент | UTorrent

% Раздел Тема Автор DL S | L
Наши фильмы 2013 [ 1.7 GB ] Не бойся, я с тобой! 1919 | | SATRip nobana Скачать
1 | 0
Кино СССР [ 2.18 GB ] Не бойся, я с тобой! | | HDTVRip-AVC от AVP Studio AVP Studio Скачать
1 | 0
Кино СССР [ 1.09 GB ] Не бойся, я с тобой! | | HDTVRip от AVP Studio AVP Studio Скачать
1 | 0
Кино СССР [ 1.69 GB ] Не бойся, я с тобой! | | DVDRip Azazel Скачать
1 | 0
Кино СССР [ 2.1 GB ] Не бойся, я с тобой! | | DVDRip chaga2009 Скачать
1 | 0

28-11-2019 20:33  

Отключить вcю реклaмy на сайте

15-11-2015 10:14 Не бойся, я с тобой! Скачать торрент  

Вот уж подарок так подарок.Благодарю.



15-11-2015 10:55 Не бойся, я с тобой! Скачать торрент  

какой класный фильм смотрел давно очень понравился скачаю буду ещё смотреть вылажившему большое спасибо



    Дорогой пользователь! Огромная просьба, поблагодарите релизера, оцените раздачу и оставьте свои комментарий, если Вы скачали Не бойся, я с тобой! через торрент бесплатно!!
    Комментировать посты могут только пользователи прошедшие не сложную регистрацию
    Показать сообщения:    


    Не бойся, я с тобой! через торрент
    Скачать бесплатно Не бойся, я с тобой!
    Не бойся, я с тобой! скачать торрент
    Не бойся, я с тобой! смотреть онлайн
    Cкачать фильм Не бойся, я с тобой! бесплатно
    Не бойся, я с тобой! скачать торрент в хорошем качестве
    Не бойся, я с тобой! смотреть онлайн бесплатно в хорошем качестве
    Вы не можете начинать темы
    Вы не можете отвечать на сообщения
    Вы не можете редактировать свои сообщения
    Вы не можете удалять свои сообщения
    Вы не можете голосовать в опросах
    Вы не можете прикреплять файлы к сообщениям
    Вы можете скачивать файлы