Присоединяйтесь к нам в Telegram!, здесь всегда актуальный адрес сайта, оперативная поддержка и многое другое!!

>

5.9

iTunes

7.4

iTunes

9.4

1 сезон

1

7.4

2 сезон

7.2

iTunes

7.3

1 сезон

13

6.1

iTunes

8.3

GOG

30

ULTIMATE

pack

9.9

Лицензия

ВАЖНО

ИГРА 18+

pack

7.3

RePack

MK11

7.7

RePack

jed

7.8

RePack

fifa19

8.5

RePack

RDR2

RePack

NEED FOR SPEED™ PAYBACK

5 сезон

9 сезон

Бесстыжие 9 сезон

Все сериалы

все сериалы на PB.wtf

RePack

FAR CRY 5

Anonymous, добрый день, мы катастрофически не успеваем собрать деньги на оплату серверов, помогите нам пожалуйста 5,10,15р., для нас важна любая помощь . В качестве благодарности мы отключим Вам всю рекламу на сайте (укажите свой ник в строку Ваше имя)!

×
  
Magnet ссылка

Другой мир / Another World (Эйтан Реувин) [2015, ужасы, фантастика, боевик, WEB-DLRip] DVO (Ох! Студия) и Ворон] piratbit.org

Другой мир через торрент piratbit.org

Размер: 1.46 GB | Добавлен: 6 лет назад | Торрент скачан:649 раз
Смотреть онлайн Другой мир | Скачать    Ребята, помогите собрать деньги на оплату серверов!!!

18-11-2015 13:41 Другой мир Скачать торрент  


Другой мир / Another World


ИНФОРМАЦИЯ:
Год выпуска:2015
Страна: Израиль
Жанр: ужасы, фантастика, боевик
Продолжительность: 01:39:53
Перевод: Любительский (двухголосый) (Ох! Студия) и Ворон]
Режиссер: Эйтан Реувин

В Ролях:
Larry Buchins (рассказчик), Зэк Коэн (Wizard), Сюзанна Гшвендтнер (Doctor), Davina Kevelson (Daughter), David Lavenski (Mouser), Карл МакКристал (Colonel)

Описание:
В пост-апокалиптическом будущем, во время создания биологического оружия, что-то пошло не так, и четырем выжившим приходится защищать себя от «зараженных» - бессмысленных убийц. Они борются, чтобы выжить и понять, что же на самом деле произошло.

  • Мировая премьера:10 октября 2015

    ТЕХ.ДАННЫЕ:
    Качество: WEB-DLRip
    Формат: AVI
    Видео: XviD, 720x384 (1.875), 1417 kbps, 24 fps, 0,214 bpp
    Аудио №1: AC3 / 2.0 / 48 kHz / 192 kbps / Русский
    Аудио №2: AC3 / 5.1 / 48 kHz / 384 kbps / английский


    General
    Complete name : D:\Торенты\Another.World.2015.L2.WEB-DLRip.ExKinoRay.avi
    Format : AVI
    Format/Info : Audio Video Interleave
    File size : 1.46 GiB
    Duration : 1h 39mn
    Overall bit rate : 2 087 Kbps
    Writing application : VirtualDubMod 1.5.10.2 (build 2540/release)
    Writing library : VirtualDubMod build 2540/release
    Copyright : ExKinoRay

    Video
    ID : 0
    Format : MPEG-4 Visual
    Format profile : Advanced Simple@L5
    Format settings, BVOP : 1
    Format settings, QPel : No
    Format settings, GMC : No warppoints
    Format settings, Matrix : Custom
    Codec ID : XVID
    Codec ID/Hint : XviD
    Duration : 1h 39mn
    Bit rate : 1 417 Kbps
    Width : 720 pixels
    Height : 384 pixels
    Display aspect ratio : 1.875
    Frame rate : 24.000 fps
    Color space : YUV
    Chroma subsampling : 4:2:0
    Bit depth : 8 bits
    Scan type : Progressive
    Compression mode : Lossy
    Bits/(Pixel*Frame) : 0.214
    Stream size : 1 013 MiB (68%)
    Writing library : XviD 73

    Audio #1
    ID : 1
    Format : AC-3
    Format/Info : Audio Coding 3
    Mode extension : CM (complete main)
    Codec ID : 2000
    Duration : 1h 39mn
    Bit rate mode : Constant
    Bit rate : 192 Kbps
    Channel(s) : 2 channels
    Channel positions : Front: L R
    Sampling rate : 48.0 KHz
    Bit depth : 16 bits
    Compression mode : Lossy
    Stream size : 137 MiB (9%)
    Alignment : Split accross interleaves
    Title : Voron

    Audio #2
    ID : 2
    Format : AC-3
    Format/Info : Audio Coding 3
    Mode extension : CM (complete main)
    Codec ID : 2000
    Duration : 1h 39mn
    Bit rate mode : Constant
    Bit rate : 384 Kbps
    Channel(s) : 6 channels
    Channel positions : Front: L C R, Side: L R, LFE
    Sampling rate : 48.0 KHz
    Bit depth : 16 bits
    Compression mode : Lossy
    Stream size : 274 MiB (18%)
    Alignment : Split accross interleaves
    Скриншоты:

    © Оформление by .::Ворон::.
    piratbit.org



  • Скачать Другой мир через торрент https://pic1.kartinco.top/images/61/ordi9.jpg Скачать, смотреть онлайн Другой мир бесплантно в хорошем качестве Описание: В пост-апокалиптическом будущем, во время создания биологического оружия, что-то пошло не так, и четырем выжившим приходится ... 8.5 10 30
    Info! Золотая раздача, скачанное не засчитывается.
    Торрент: Зарегистрирован [2015-11-18 13:41] · скачан: 649 раз
    Статус: T временная
    Размер: 1.46 GB
    Как cкачать? Как скачать Другой мир через торрент | UTorrent

    % Раздел Тема Автор DL S | L
    T Фильмы (WEB-DL 720p, 1080p) [ 3.15 GB ] Другой мир / Another World [2015 WEB-DL 720p DVO и Ворон] Ворон Скачать
    1 | 0

    28-11-2019 20:33  

    Отключить всю рекламу на сайте

    18-11-2015 14:40 Другой мир Скачать торрент  

    Бро, спс за релиз , НО и вопрос сразу же, ты чё, и озвучкой занялся ???
    Перевод: Любительский (двухголосый) (Ох! Студия) и Ворон] yes yes yespiratbit.org
    !Ворон писал(а):

    Привет Серый. Приятного просмотра. Нет, это мой "сородич" )=



    18-11-2015 18:23 Другой мир Скачать торрент  

    Если чё перевода нет!piratbit.org



    19-11-2015 08:30 Другой мир Скачать торрент  

    Сорри есть перевод,у меня хрень была без переводная на плеере))piratbit.org



    19-11-2015 08:31 Другой мир Скачать торрент  

    gaben, Вот именно, вы сразу паникуете и критикуете..С начало убедитесь что проблема не у Вас, потом пишите в теме.piratbit.org



    19-11-2015 14:44 Другой мир Скачать торрент  

    Бред зря время потерял фильм не о чем! все равно спасибо за релиз!piratbit.org



      Дорогой пользователь! Огромная просьба, поблагодарите релизера, оцените раздачу и оставьте свои комментарий, если Вы скачали Другой мир через торрент бесплатно!
      Комментировать посты могут только пользователи прошедшие не сложную регистрацию
      Показать сообщения:    

      Другой мир через торрент
      Скачать бесплатно Другой мир
      Другой мир скачать торрент
      Другой мир смотреть онлайн
      Cкачать фильм Другой мир бесплатно
      Другой мир скачать торрент в хорошем качестве
      Другой мир смотреть онлайн бесплатно в хорошем качестве


      Вы не можете начинать темы
      Вы не можете отвечать на сообщения
      Вы не можете редактировать свои сообщения
      Вы не можете удалять свои сообщения
      Вы не можете голосовать в опросах
      Вы не можете прикреплять файлы к сообщениям
      Вы можете скачивать файлы