Присоединяйтесь к нам в Telegram!, здесь всегда актуальный адрес сайта, оперативная поддержка и многое другое!!

>

5.9

iTunes

7.4

iTunes

9.4

1 сезон

1

7.4

2 сезон

7.2

iTunes

7.3

1 сезон

13

6.1

iTunes

8.3

Пиратка

30

ULTIMATE

pack

9.9

Лицензия

ВАЖНО

ИГРА 18+

pack

7.3

RePack

MK11

7.7

RePack

jed

7.8

RePack

fifa19

8.5

RePack

RDR2

RePack

NEED FOR SPEED™ PAYBACK

5 сезон

9 сезон

Бесстыжие 9 сезон

Все сериалы

все сериалы на PB.wtf

RePack

FAR CRY 5

Anonymous, доброй ночи, мы катастрофически не успеваем собрать деньги на оплату серверов, помогите нам пожалуйста 5,10,15р., для нас важна любая помощь . В качестве благодарности мы отключим Вам всю рекламу на сайте (укажите свой ник в строку Ваше имя)!

×
  
Magnet ссылка

Забытое / 4Got10 (Тимоти Вудворд мл.) [2015, боевик, триллер, вестерн, HDRip, Любительский (двухголосый)[Parovoz Production] piratbit.org

Забытое через торрент piratbit.org

Размер: 1.45 GB | Добавлен: 6 лет назад | Торрент скачан:154 раза
Смотреть онлайн Забытое | Скачать    Ребята, помогите собрать деньги на оплату серверов!!!

18-11-2015 17:49 Забытое Скачать торрент  


Забытое / 4Got10
««The good, the bad, and the dead»»

ИНФОРМАЦИЯ:
Год выпуска:2015
Страна: США
Жанр: боевик, триллер, вестерн
Продолжительность: 01:24:07
Перевод: Любительский (двухголосый)[Parovoz Production]
Режиссер: Тимоти Вудворд мл.

В Ролях:


Джонни Месснер (Brian Barns), Дольф Лундгрен (Bob Rooker), Дэнни Трехо (Mateo Perez), Вивика А. Фокс (Imani Cole), Майкл Паре (Sheriff Olson), Наташа Мальте (Christine), Джон Лофлин (Howard), Энджелл Конвелл (Agent Taylor), Клемент Тинаж (Detective), Эрин О’Брайэн (Jesse), Джон Фу, Джейд Росси (News Reporter)

Описание:
Брайан Барнс просыпается в пустыне. Он ранен и без памяти, и не понимает, почему его окружают восемь трупов, фургон с четырьмя миллионами наличными и еще один фургон с кокаином. Брайана преследует не только пресловутый наркобарон Дэнни Перес, который отчаянно хочет вернуть обратно свои деньги, но и агент Рукер, а также коррумпированный шериф Олсон, который не остановится ни перед чем, чтобы заполучить деньги. Чем больше Брайан вспоминает о прошлом, тем меньше он хочет знать о том, кто он на самом деле.

  • Мировая премьера:6 октября 2015

    ТЕХ.ДАННЫЕ:
    Качество: HDRip
    Формат: AVI
    Видео: XviD, 720x304 (2.35:1), 1851 kbps, 23,976 fps, 0,353 bpp
    Аудио №1: AC3 / 2.0 / 48 kHz / 128 kbps / Русский
    Аудио №2: AC3 / 5.1 / 48 kHz / 384 kbps / Английский


    General
    Complete name : D:\Торенты\4g0t10.2015.L2.HDRip.avi
    Format : AVI
    Format/Info : Audio Video Interleave
    File size : 1.45 GiB
    Duration : 1h 24mn
    Overall bit rate : 2 472 Kbps

    Video
    ID : 0
    Format : MPEG-4 Visual
    Format profile : Advanced Simple@L5
    Format settings, BVOP : 2
    Format settings, QPel : No
    Format settings, GMC : No warppoints
    Format settings, Matrix : Default (MPEG)
    Codec ID : XVID
    Codec ID/Hint : XviD
    Duration : 1h 24mn
    Bit rate : 1 851 Kbps
    Width : 720 pixels
    Height : 304 pixels
    Display aspect ratio : 2.35:1
    Frame rate : 23.976 fps
    Color space : YUV
    Chroma subsampling : 4:2:0
    Bit depth : 8 bits
    Scan type : Progressive
    Compression mode : Lossy
    Bits/(Pixel*Frame) : 0.353
    Stream size : 1.09 GiB (75%)
    Writing library : XviD 1.2.1 (UTC 2008-12-04)

    Audio #1
    ID : 1
    Format : AC-3
    Format/Info : Audio Coding 3
    Mode extension : CM (complete main)
    Codec ID : 2000
    Duration : 1h 24mn
    Bit rate mode : Constant
    Bit rate : 128 Kbps
    Channel(s) : 2 channels
    Channel positions : Front: L R
    Sampling rate : 48.0 KHz
    Bit depth : 16 bits
    Compression mode : Lossy
    Stream size : 77.0 MiB (5%)
    Alignment : Split accross interleaves

    Audio #2
    ID : 2
    Format : AC-3
    Format/Info : Audio Coding 3
    Mode extension : CM (complete main)
    Codec ID : 2000
    Duration : 1h 24mn
    Bit rate mode : Constant
    Bit rate : 384 Kbps
    Channel(s) : 6 channels
    Channel positions : Front: L C R, Side: L R, LFE
    Sampling rate : 48.0 KHz
    Bit depth : 16 bits
    Compression mode : Lossy
    Stream size : 231 MiB (16%)
    Alignment : Split accross interleaves
    Скриншоты:

    © Оформление by .::Ворон::.
    piratbit.org



  • Скачать Забытое через торрент https://pic1.kartinco.top/images/61/ordi9.jpg Скачать, смотреть онлайн Забытое бесплантно в хорошем качестве Описание: Брайан Барнс просыпается в пустыне. Он ранен и без памяти, и не понимает, почему его окружают восемь трупов, фургон с четырьмя ... 8.9 10 10
    Торрент: Зарегистрирован [2015-11-18 17:57] · скачан: 154 раз
    Статус: T временная
    Размер: 1.45 GB
    Как cкачать? Как скачать Забытое через торрент | UTorrent

    % Раздел Тема Автор DL S | L
    T Фильмы 2015 (Звук TS, Cam, VO, DVO) [ 1.37 GB ] Забытое / 4Got10 [2015 HDRip] VO Ворон Скачать
    1 | 0
    Фильмы (Blu-ray, BD-Remux, HDDVD) [ 20.86 GB ] Забытое / 4Got10 [2015 BDRemux 1080p ] VO Ворон Скачать
    1 | 0

    28-11-2019 20:33  

    Отключить всю рекламу на сайте

    18-11-2015 18:35 Забытое Скачать торрент  

    как фильм? я помню несколько фильмов, точнее моментов из фильмов, с Лундгреномpiratbit.org



      Дорогой пользователь! Огромная просьба, поблагодарите релизера, оцените раздачу и оставьте свои комментарий, если Вы скачали Забытое через торрент бесплатно!
      Комментировать посты могут только пользователи прошедшие не сложную регистрацию
      Показать сообщения:    

      Забытое через торрент
      Скачать бесплатно Забытое
      Забытое скачать торрент
      Забытое смотреть онлайн
      Cкачать фильм Забытое бесплатно
      Забытое скачать торрент в хорошем качестве
      Забытое смотреть онлайн бесплатно в хорошем качестве


      Вы не можете начинать темы
      Вы не можете отвечать на сообщения
      Вы не можете редактировать свои сообщения
      Вы не можете удалять свои сообщения
      Вы не можете голосовать в опросах
      Вы не можете прикреплять файлы к сообщениям
      Вы можете скачивать файлы