Доктор Стрэндж

Лицензия

Добыча

Дубляж

Дом дракона

1 сезон

Тор

Дубляж

В эфире

Дубляж

Там, где раки поют

MVO

Властелин колец

1 сезон

Ultimate

pack

Рекомендуем

30

Пиратка

ВАЖНО

ВАЖНО

Ghostwire

Пиратка

jed

RePack

nioh2

RePack

RDR2

RePack

NEED FOR SPEED™ PAYBACK

RePack

скачать торрент

Кинопоиск HD

Острые козырьки 6 сезон

6 сезон

FAR CRY 6

RePack

скачать торрент

Лицензия

скачать торрент

MVO

1

1 сезон

скачать торрент

1 сезон

скачать торрент

Лицензия

  

Призраки: Лучшая участь / Spooks: The Greater Good (Бхарат Наллури) [2015, триллер, драма, BDRip 1080p, Любительский (многоголосый)

Призраки: Лучшая участь через торрент piratbit.org

Размер: 11.29 GB | Добавлен: 7 лет назад | Торрент скачан:34 раза
Смотреть онлайн | Скачать   

18-11-2015 18:51 Призраки: Лучшая участь Скачать торрент  

Призраки: Лучшая участь / Spooks: The Greater Good
««Loyalty is treason»»

ИНФОРМАЦИЯ:
Год выпуска:2015
Страна: Великобритания
Жанр: триллер, драма
Продолжительность: 01:43:49
Перевод: Любительский (многоголосый) [студия GreenРай Studio]
Режиссер: Бхарат Наллури

В Ролях:


Кит Харингтон (Will Holloway), Таппенс Мидлтон (June), Лара Пулвер (Erin Watts), Дэвид Хэрвуд (Warrender), Элиес Габел (Qasim), Дженнифер Или (Geraldine Maltby), Питер Фёрт (Harry Pearce), Элинор Мацуура (Hannah Santo), Тим МакИннерни (Mace), Оливер Гилберт (Aide), Элизабет Конбой (Security woman), Ласко Аткинс (Russian pimp)

Описание:
Когда террорист убегает из-под опеки в ходе передачи, Уилл Кромби должен объединиться с опальным шефом разведки MI5 Гарри Пирсом, чтобы разыскать его перед неминуемой террористической атакой на Лондон.

  • Мировая премьера:8 мая 2015

    ТЕХ.ДАННЫЕ:
    Качество: BDRip 1080p
    Формат: MKV
    Видео: AVC, 1920x802 (2.40:1), 13868 kbps, 24 fps, 0,375 bpp
    Аудио №1: русский / AC3 / 5.1 / 48 kHz / 640 kbps / 16 bit ||
    Аудио №2: английский / DTS / 5.1 / 48 kHz / 755 kbps / 24 bit
    Навигация по главам: есть


    General
    Unique ID : 186167168176658466458187485987665503463 (0x8C0E7E0CF6DEDEDCA07240A3395264E7)
    Complete name : D:\Торенты\Pry3raky.Luchshaya.Ucyast.2015.MVO.BDRip.1080p.mkv
    Format : Matroska
    Format version : Version 4 / Version 2
    File size : 11.3 GiB
    Duration : 1h 43mn
    Overall bit rate : 15.6 Mbps
    Encoded date : UTC 2015-11-18 17:26:57
    Writing application : mkvmerge v8.3.0 ('Over the Horizon') 64bit
    Writing library : libebml v1.3.1 + libmatroska v1.4.2

    Video
    ID : 1
    Format : AVC
    Format/Info : Advanced Video Codec
    Format profile : High@L4.1
    Format settings, CABAC : Yes
    Format settings, ReFrames : 5 frames
    Codec ID : V_MPEG4/ISO/AVC
    Duration : 1h 43mn
    Bit rate : 13.9 Mbps
    Width : 1 920 pixels
    Height : 802 pixels
    Display aspect ratio : 2.40:1
    Frame rate : 24.000 fps
    Color space : YUV
    Chroma subsampling : 4:2:0
    Bit depth : 8 bits
    Scan type : Progressive
    Bits/(Pixel*Frame) : 0.375
    Stream size : 10.1 GiB (89%)
    Language : English
    Default : Yes
    Forced : No
    Matrix coefficients : BT.709-5, BT.1361, IEC 61966-2-4 709, SMPTE RP177

    Audio #1
    ID : 2
    Format : AC-3
    Format/Info : Audio Coding 3
    Mode extension : CM (complete main)
    Codec ID : A_AC3
    Duration : 1h 43mn
    Bit rate mode : Constant
    Bit rate : 640 Kbps
    Channel(s) : 6 channels
    Channel positions : Front: L C R, Side: L R, LFE
    Sampling rate : 48.0 KHz
    Bit depth : 16 bits
    Compression mode : Lossy
    Stream size : 475 MiB (4%)
    Language : Russian
    Default : Yes
    Forced : No

    Audio #2
    ID : 3
    Format : DTS
    Format/Info : Digital Theater Systems
    Codec ID : A_DTS
    Duration : 1h 43mn
    Bit rate mode : Constant
    Bit rate : 755 Kbps
    Channel(s) : 6 channels
    Channel positions : Front: L C R, Side: L R, LFE
    Sampling rate : 48.0 KHz
    Bit depth : 24 bits
    Compression mode : Lossy
    Delay relative to video : 1ms
    Stream size : 560 MiB (5%)
    Language : English
    Default : No
    Forced : No

    Menu
    00:00:00.000 : en:00:00:00.000
    00:06:34.542 : en:00:08:47.000
    00:15:49.042 : en:00:18:01.500
    00:21:58.542 : en:00:24:11.000
    00:31:01.375 : en:00:33:13.833
    00:39:22.584 : en:00:41:35.042
    00:47:17.250 : en:00:49:29.708
    00:56:35.792 : en:00:58:48.250
    01:03:02.834 : en:01:05:15.292
    01:11:51.250 : en:01:14:03.708
    01:19:46.500 : en:01:21:58.958
    01:27:15.792 : en:01:29:28.250
    Скриншоты:

    © Оформление by .::Ворон::.



  • Скачать Призраки: Лучшая участь через торрент http://i1-imageban-ru.translate.goog/out/2015/11/18/c121d4b325294b79d38cd1ce3c981eed.jpg Скачать, смотреть онлайн Призраки: Лучшая участь бесплантно в хорошем качестве Описание: Когда террорист убегает из-под опеки в ходе передачи, Уилл Кромби должен объединиться с опальным шефом разведки MI5 Гарри Пирсом, ... 10 10 1
    Торрент: Зарегистрирован [2015-11-18 18:51] · скачан: 34 раз
    Статус: T временная
    Размер: 11.29 GB
    Как cкачать? Как скачать Призраки: Лучшая участь через торрент | UTorrent

    % Раздел Тема Автор DL S | L
    T Фильмы 2015 (Звук TS, Cam, VO, DVO) [ 1.46 GB ] Призраки: Лучшая участь / Spooks: The Greater Good | | BDRip , Любительский (многоголосый Twi7ter Скачать
    1 | 0
    Фильмы без перевода [ 3.15 GB ] Призраки: Лучшая участь / Spooks: The Greater Good | | 720p killermax2013 Скачать
    1 | 0

    28-11-2019 20:33  


    Отключить вcю реклaмy на сайте, в т.ч. и в плеере онлайн просмотра!

      Дорогой пользователь! Огромная просьба, поблагодарите релизера, оцените раздачу и оставьте свои комментарий, если Вы скачали Призраки: Лучшая участь через торрент бесплатно!!
      Комментировать посты могут только пользователи прошедшие не сложную регистрацию
      Показать сообщения:    


      Призраки: Лучшая участь через торрент
      Скачать бесплатно Призраки: Лучшая участь
      Призраки: Лучшая участь скачать торрент
      Призраки: Лучшая участь смотреть онлайн
      Cкачать фильм Призраки: Лучшая участь бесплатно
      Призраки: Лучшая участь скачать торрент в хорошем качестве
      Призраки: Лучшая участь смотреть онлайн бесплатно в хорошем качестве
      Вы не можете начинать темы
      Вы не можете отвечать на сообщения
      Вы не можете редактировать свои сообщения
      Вы не можете удалять свои сообщения
      Вы не можете голосовать в опросах
      Вы не можете прикреплять файлы к сообщениям
      Вы можете скачивать файлы
      Призраки: Лучшая участь / Spooks: The Greater Good [2015, триллер, драма, BDRip 1080p, Любительский смотреть онлайн, скачать торрент picoco.icu