Доктор Стрэндж

Лицензия

Добыча

Дубляж

Дом дракона

1 сезон

Тор

Дубляж

В эфире

Дубляж

Там, где раки поют

MVO

Властелин колец

1 сезон

Ultimate

pack

Рекомендуем

30

Пиратка

ВАЖНО

ВАЖНО

Ghostwire

Пиратка

jed

RePack

nioh2

RePack

RDR2

RePack

NEED FOR SPEED™ PAYBACK

RePack

скачать торрент

Кинопоиск HD

Острые козырьки 6 сезон

6 сезон

FAR CRY 6

RePack

скачать торрент

Лицензия

скачать торрент

MVO

1

1 сезон

скачать торрент

1 сезон

скачать торрент

Лицензия

  

Доказательство Дьявола / Proof of the Devil (Пол Каталанотто) [2014, ужасы, BDRip 1080p] Любительский (одноголосый) [datynet]

Доказательство Дьявола через торрент piratbit.org

Размер: 8.06 GB | Добавлен: 7 лет назад | Торрент скачан:44 раза
Смотреть онлайн | Скачать   

20-11-2015 07:56 Доказательство Дьявола Скачать торрент  

Доказательство Дьявола / Proof of the Devil«Evil comes from within»

  • Год выхода: 2014
  • Жанр: ужасы
  • Страна: США
  • Продолжительность: 01:11:00
  • Перевод: Любительский (одноголосый) [datynet]
  • Cубтитры: русские (forced)
  • Режиссер: Пол Каталанотто
  • В ролях:

    Лиза Мэкель Смит (Kate Winters), Sam Cobean (Benjamin Hatcher), Donovan Jackson (Eddie Daniels), Майк Бьенвеню (Father Robert Tomlin), Хантер МакГрегор (Stu), Кристен Мерритт (Sarah), Max Jay-Dixon (Jesse Winters), Шэйн Гилбо (Jack Winters), Чад Грэхэм (Hospital Orderly), Эскаланте Ланди (Police Officer), Graham Ulkins (играет самого себя), Кара Лонг (Kerry Marshall)


  • Страна замерла от серии ужасных убийств, сделанных 18-летним мальчишкой. Пацан был пойман полицией, изобличён в преступлениях, и был казнён путём введения смертельной инъекции. С пустя некоторое время в гости к матери Мясника,как его назвали СМИ, приезжает съёмочная группа телевидения, и здесь начинаются кошмарные и непредсказуемые события.
    семпл
  • Качество: BDRip 1080p
  • Формат: MKV
  • Видео кодек: AVC
  • Аудио кодек: AC3, DTS
  • Видео: AVC, 1920x1080 (16:9), 12606 kbps, 25 fps, 0,243 bpp
  • Аудио №1: русский / DTS / 5.1 / 48 kHz / 1510 kbps / 24 bit |VO, datynet|
  • Аудио №2: русский / AC3 / 5.1 / 48 kHz / 640 kbps / 16 bit |VO, datynet|
  • Аудио №3: английский / DTS / 5.1 / 48 kHz / 1510 kbps / 24 bit

    Код:

    General
    Unique ID                                : 209618329398240038149659906381011038586 (0x9DB3059147BA861790B27902CA21317A)
    Complete name                            : H:\Proof.of.the.Devil.2014.1080p.BDRip.mkv
    Format                                   : Matroska
    Format version                           : Version 4 / Version 2
    File size                                : 8.06 GiB
    Duration                                 : 1h 11mn
    Overall bit rate                         : 16.3 Mbps
    Encoded date                             : UTC 2015-11-19 15:11:13
    Writing application                      : mkvmerge v6.9.1 ('Blue Panther') 64bit built on Apr 18 2014 18:23:38
    Writing library                          : libebml v1.3.0 + libmatroska v1.4.1

    Video
    ID                                       : 1
    Format                                   : AVC
    Format/Info                              : Advanced Video Codec
    Format profile                           : High@L4.1
    Format settings, CABAC                   : Yes
    Format settings, ReFrames                : 4 frames
    Codec ID                                 : V_MPEG4/ISO/AVC
    Duration                                 : 1h 11mn
    Bit rate                                 : 12.6 Mbps
    Width                                    : 1 920 pixels
    Height                                   : 1 080 pixels
    Display aspect ratio                     : 16:9
    Frame rate                               : 25.000 fps
    Color space                              : YUV
    Chroma subsampling                       : 4:2:0
    Bit depth                                : 8 bits
    Scan type                                : Progressive
    Bits/(Pixel*Frame)                       : 0.243
    Stream size                              : 6.08 GiB (75%)
    Writing library                          : x264 core 146 r2538 121396c
    Encoding settings                        : cabac=1 / ref=4 / deblock=1:-1:-1 / analyse=0x3:0x113 / me=umh / subme=11 / psy=1 / psy_rd=1.00:0.20 / mixed_ref=1 / me_range=32 / chroma_me=1 / trellis=2 / 8x8dct=1 / cqm=0 / deadzone=21,11 / fast_pskip=0 / chroma_qp_offset=-3 / threads=12 / lookahead_threads=1 / sliced_threads=0 / nr=0 / decimate=0 / interlaced=0 / bluray_compat=0 / constrained_intra=0 / bframes=6 / b_pyramid=2 / b_adapt=2 / b_bias=0 / direct=3 / weightb=1 / open_gop=0 / weightp=2 / keyint=240 / keyint_min=24 / scenecut=40 / intra_refresh=0 / rc_lookahead=40 / rc=2pass / mbtree=0 / bitrate=12606 / ratetol=1.0 / qcomp=0.60 / qpmin=0 / qpmax=69 / qpstep=4 / cplxblur=20.0 / qblur=0.5 / vbv_maxrate=50000 / vbv_bufsize=62500 / nal_hrd=none / filler=0 / ip_ratio=1.40 / pb_ratio=1.30 / aq=1:1.00
    Language                                 : English
    Default                                  : Yes
    Forced                                   : No

    Audio #1
    ID                                       : 2
    Format                                   : DTS
    Format/Info                              : Digital Theater Systems
    Codec ID                                 : A_DTS
    Duration                                 : 1h 11mn
    Bit rate mode                            : Constant
    Bit rate                                 : 1 510 Kbps
    Channel(s)                               : 6 channels
    Channel positions                        : Front: L C R, Side: L R, LFE
    Sampling rate                            : 48.0 KHz
    Bit depth                                : 24 bits
    Compression mode                         : Lossy
    Stream size                              : 767 MiB (9%)
    Title                                    : datynet
    Language                                 : Russian
    Default                                  : Yes
    Forced                                   : No

    Audio #2
    ID                                       : 3
    Format                                   : AC-3
    Format/Info                              : Audio Coding 3
    Mode extension                           : CM (complete main)
    Codec ID                                 : A_AC3
    Duration                                 : 1h 11mn
    Bit rate mode                            : Constant
    Bit rate                                 : 640 Kbps
    Channel(s)                               : 6 channels
    Channel positions                        : Front: L C R, Side: L R, LFE
    Sampling rate                            : 48.0 KHz
    Bit depth                                : 16 bits
    Compression mode                         : Lossy
    Stream size                              : 325 MiB (4%)
    Title                                    : datynet
    Language                                 : Russian
    Default                                  : No
    Forced                                   : No

    Audio #3
    ID                                       : 4
    Format                                   : DTS
    Format/Info                              : Digital Theater Systems
    Codec ID                                 : A_DTS
    Duration                                 : 1h 11mn
    Bit rate mode                            : Constant
    Bit rate                                 : 1 510 Kbps
    Channel(s)                               : 6 channels
    Channel positions                        : Front: L C R, Side: L R, LFE
    Sampling rate                            : 48.0 KHz
    Bit depth                                : 24 bits
    Compression mode                         : Lossy
    Stream size                              : 767 MiB (9%)
    Title                                    : original
    Language                                 : English
    Default                                  : No
    Forced                                   : No

    Text
    ID                                       : 5
    Format                                   : UTF-8
    Codec ID                                 : S_TEXT/UTF8
    Codec ID/Info                            : UTF-8 Plain Text
    Title                                    : force
    Language                                 : Russian
    Default                                  : Yes
    Forced                                   : Yes

    Скриншоты:


    © Оформление by -Lexx-



  • Скачать Доказательство Дьявола через торрент https://pic1.kartinco.top/images/61/stazu.jpg Скачать, смотреть онлайн Доказательство Дьявола бесплантно в хорошем качестве qw.png Страна замерла от серии ужасных убийств, сделанных 18-летним мальчишкой. Пацан был пойман полицией, изобличён в преступлениях, и ... 7.8 10 4
    Торрент: Зарегистрирован [2015-11-20 07:56] · скачан: 44 раз
    Статус: T временная
    Размер: 8.06 GB
    Как cкачать? Как скачать Доказательство Дьявола через торрент | UTorrent

    28-11-2019 20:33  


    Отключить вcю реклaмy на сайте, в т.ч. и в плеере онлайн просмотра!

      Дорогой пользователь! Огромная просьба, поблагодарите релизера, оцените раздачу и оставьте свои комментарий, если Вы скачали Доказательство Дьявола через торрент бесплатно!!
      Комментировать посты могут только пользователи прошедшие не сложную регистрацию
      Показать сообщения:    


      Доказательство Дьявола через торрент
      Скачать бесплатно Доказательство Дьявола
      Доказательство Дьявола скачать торрент
      Доказательство Дьявола смотреть онлайн
      Cкачать фильм Доказательство Дьявола бесплатно
      Доказательство Дьявола скачать торрент в хорошем качестве
      Доказательство Дьявола смотреть онлайн бесплатно в хорошем качестве
      Вы не можете начинать темы
      Вы не можете отвечать на сообщения
      Вы не можете редактировать свои сообщения
      Вы не можете удалять свои сообщения
      Вы не можете голосовать в опросах
      Вы не можете прикреплять файлы к сообщениям
      Вы можете скачивать файлы
      Доказательство Дьявола / Proof of the Devil [2014, ужасы, BDRip 1080p] Любительский [datynet] смотреть онлайн, скачать торрент picoco.icu