Доктор Стрэндж

Лицензия

Добыча

MVO

Дом дракона

1 сезон

Тор

Лицензия

Мэверик

Лицензия

Там, где раки поют

MVO

Властелин колец

1 сезон

Ultimate

pack

Рекомендуем

30

Repack

ВАЖНО

ВАЖНО

Ghostwire

RePack

jed

RePack

nioh2

RePack

RDR2

RePack

NEED FOR SPEED™ PAYBACK

RePack

скачать торрент

Кинопоиск HD

Острые козырьки 6 сезон

6 сезон

FAR CRY 6

RePack

скачать торрент

Лицензия

скачать торрент

MVO

1

1 сезон

скачать торрент

1 сезон

скачать торрент

Лицензия

  

ЦРУ: тайные эксперименты / Les experiences secretes de la CIA (Изабелль Курсье) [2015 г., Документальный, познавательный, история, расследование, SATRip, Профессиональный (многоголосый)]

ЦРУ: тайные эксперименты через торрент piratbit.org

Размер: 709 MB | Добавлен: 6 лет 10 мес. назад | Торрент скачан:70 раз
Смотреть онлайн ЦРУ: тайные эксперименты | Скачать   

21-11-2015 18:59 ЦРУ: тайные эксперименты Скачать торрент  

ЦРУ: тайные эксперименты / Les experiences secretes de la CIA




Год выпуска: 2015
Страна: Франция
Жанр: Документальный, познавательный, история, расследование
Продолжительность: 00:52:17
Перевод: Профессиональный (многоголосый)
Субтитры: нет

Режиссер: Изабелль Курсье




Описание: 16 августа 1951 года жители французского городка Пон-Сент-Эспри были охвачены массовым помешательством. Власти до причин этого явления так и не докопались. Но независимые журналисты нашли ниточки, которые тянулись в секретные военные лаборатории США… Контроль над сознанием… В ядерную эпоху многие страны стали проявлять повышенный интерес к этой теме в надежде получить абсолютное оружие, обладая которым, можно выиграть войну без единого выстрела. Особенно активно поиски способов воздействия на человеческий мозг и психику велись в США. Причём с подачи ЦРУ и военных в этих исследованиях были задействованы ведущие университеты страны. В стремлении как можно скорее добиться результата, так называемые учёные не гнушались ничем, проводя опыты над людьми. Фильм «ЦРУ: тайные эксперименты» рассказывает об этих экспериментах и об их жертвах.




Качество: SATRip
Формат: AVI
Видео кодек: XviD
Аудио кодек: MP3
Видео: XviD, 720x400 (16:9), 25.000 fps, 1 756 Kbps (0.244 bit/pixel)
Аудио#1: MP3, 44.1 KHz, 2 ch, 128 Kbps, CBR

скриншот  скриншот  скриншот  

Общее
Полное имя : D:\download\ЦРУ- тайные эксперименты.avi
Формат : AVI
Формат/Информация : Audio Video Interleave
Размер файла : 709 Мбайт
Продолжительность : 52 м.
Общий поток : 1894 Кбит/сек
Программа кодирования : VirtualDubMod 1.5.10.3 | www.virtualdub-fr.org || (build 2550/release)
Библиотека кодирования : VirtualDubMod build 2550/release

Видео
Идентификатор : 0
Формат : MPEG-4 Visual
Профиль формата : Advanced Simple@L5
Параметр BVOP формата : 1
Параметр QPel формата : Нет
Параметр GMC формата : Без точки перехода
Параметр матрицы формата : Default (H.263)
Идентификатор кодека : XVID
Идентификатор кодека/Подсказка : XviD
Продолжительность : 52 м.
Битрейт : 1756 Кбит/сек
Ширина : 720 пикселей
Высота : 400 пикселей
Соотношение сторон : 16:9
Частота кадров : 25,000 кадров/сек
Цветовое пространство : YUV
Субдискретизация насыщенности : 4:2:0
Битовая глубина : 8 бит
Тип развёртки : Прогрессивная
Метод сжатия : С потерями
Бит/(Пиксели*Кадры) : 0.244
Размер потока : 657 Мбайт (93%)
Библиотека кодирования : XviD 1.2.1 (UTC 2008-12-04)

Аудио
Идентификатор : 1
Формат : MPEG Audio
Версия формата : Version 1
Профиль формата : Layer 3
Идентификатор кодека : 55
Идентификатор кодека/Подсказка : MP3
Продолжительность : 52 м.
Вид битрейта : Постоянный
Битрейт : 128 Кбит/сек
Каналы : 2 канала
Частота : 44,1 КГц
Метод сжатия : С потерями
Размер потока : 47,9 Мбайт (7%)
Выравнивание : Разделение по промежуткам
Продолжительность промежутка : 40 мс. (1,00 видеокадр)
Время предзагрузки промежутка : 500 мс.
Библиотека кодирования : LAME3.99r
Настройки программы : -m s -V 4 -q 2 -lowpass 17 -b 128



Скачать ЦРУ: тайные эксперименты через торрент https://pic1.kartinco.top/images/10/lq3q1.jpg Скачать, смотреть онлайн ЦРУ: тайные эксперименты бесплантно в хорошем качестве Описание: 16 августа 1951 года жители французского городка Пон-Сент-Эспри были охвачены массовым помешательством. Власти до причин этого ... 10 10 3
Торрент: Зарегистрирован [2015-11-21 18:59] · скачан: 70 раз
Статус: √ проверено
Размер: 709 MB
Как cкачать? Как скачать ЦРУ: тайные эксперименты через торрент | UTorrent

28-11-2019 20:33  

Отключить вcю реклaмy на сайте

    Дорогой пользователь! Огромная просьба, поблагодарите релизера, оцените раздачу и оставьте свои комментарий, если Вы скачали ЦРУ: тайные эксперименты через торрент бесплатно!!
    Комментировать посты могут только пользователи прошедшие не сложную регистрацию
    Показать сообщения:    


    ЦРУ: тайные эксперименты через торрент
    Скачать бесплатно ЦРУ: тайные эксперименты
    ЦРУ: тайные эксперименты скачать торрент
    ЦРУ: тайные эксперименты смотреть онлайн
    Cкачать фильм ЦРУ: тайные эксперименты бесплатно
    ЦРУ: тайные эксперименты скачать торрент в хорошем качестве
    ЦРУ: тайные эксперименты смотреть онлайн бесплатно в хорошем качестве
    Вы не можете начинать темы
    Вы не можете отвечать на сообщения
    Вы не можете редактировать свои сообщения
    Вы не можете удалять свои сообщения
    Вы не можете голосовать в опросах
    Вы не можете прикреплять файлы к сообщениям
    Вы можете скачивать файлы