Доктор Стрэндж

Лицензия

Добыча

MVO

Дом дракона

1 сезон

Тор

Лицензия

Мэверик

Лицензия

Там, где раки поют

MVO

Властелин колец

1 сезон

Ultimate

pack

Рекомендуем

30

Repack

ВАЖНО

ВАЖНО

Ghostwire

RePack

jed

RePack

nioh2

RePack

RDR2

RePack

NEED FOR SPEED™ PAYBACK

RePack

скачать торрент

Кинопоиск HD

Острые козырьки 6 сезон

6 сезон

FAR CRY 6

RePack

скачать торрент

Лицензия

скачать торрент

MVO

1

1 сезон

скачать торрент

1 сезон

скачать торрент

Лицензия

  

Пржевальский (Сергей Юткевич) [1951, СССР, драма, биография, DVDRip от AVP Studio]

Пржевальский через торрент piratbit.org

Размер: 746 MB | Добавлен: 6 лет 10 мес. назад | Торрент скачан:28 раз
Смотреть онлайн Пржевальский | Скачать   

25-11-2015 08:25 Пржевальский Скачать торрент  

Пржевальский
Страна: СССР
Производство: Мосфильм

Жанр: драма, биография
Год выпуска: 1951
Продолжительность: 01:47:34

Перевод: Не требуется
Cубтитры: нет
Оригинальная аудиодорожка: русский

Режиссер: Сергей Юткевич

В ролях:
Сергей Папов, Всеволод Ларионов, Борис Тенин, Цырен (Цыренжап) Шагжин, Георгий Слабиняк, Николай Комиссаров, Владимир Всеволодов, Николай Свободин, Сергей Мартинсон, Василий Бокарев, Владимир Таскин, Сергей Ценин, Кэн Джен, Тэн Лун, Лян Лен-Дзу, Ван Гуан-Дэ, Пак Чун-Сеп, Ким Дин, Цэдэн Дамдинов, Дагба Дондуков, Петр Николаев...
Полный список актёров

Описание:
Фильм посвящен знаменитому русскому путешественнику Николаю Михайловичу Пржевальскому, руководившему экспедицией в Уссурийский край и четырьмя научными экспедициями в Центральную Азию (1870-1885 гг.).
Пржевальский впервые описал природу Центральной Азии, открыл много хребтов, озер и рек; собрал ценные коллекции растений и животных, впервые описал дикого верблюда, дикую лошадь и тибетского медведя.
Он был похоронен на берегу озера Иссык-Куль (близ нынешнего г. Пржевальска).Там же находится его музей. Память Пржевальского увековечена также путем присвоения его имени открытой им дикой лошади.

Источник: DVD5 R5
Качество видео: DVDRip
Формат видео: AVI

Видео: 576x432 (4:3), 25 fps, XviD ~ 832 kbps avg, 0.134 bit/pixel
Аудио: 48 kHz, MP3 2.0, 128 kbps

Раздача от:
Общее
Полное имя : Przhevalskiy.1951.DVDRip-745_[New-team]_by_AVP_Studio.avi
Формат : AVI
Формат/Информация : Audio Video Interleave
Размер файла : 746 Мбайт
Продолжительность : 1 ч. 47 м.
Общий поток : 970 Кбит/сек
Программа кодирования : VirtualDubMod 1.5.10.3 | www.virtualdub-fr.org || (build 2550/release)
Библиотека кодирования : VirtualDubMod build 2550/release

Видео
Идентификатор : 0
Формат : MPEG-4 Visual
Профиль формата : Advanced Simple@L5
Параметр BVOP формата : 1
Параметр QPel формата : Нет
Параметр GMC формата : Без точки перехода
Параметр матрицы формата : Выборочная
Идентификатор кодека : XVID
Идентификатор кодека/Подсказка : XviD
Продолжительность : 1 ч. 47 м.
Битрейт : 832 Кбит/сек
Ширина : 576 пикселей
Высота : 432 пикселя
Соотношение сторон : 4:3
Частота кадров : 25,000 кадров/сек
Цветовое пространство : YUV
Субдискретизация насыщенности : 4:2:0
Битовая глубина : 8 бит
Тип развёртки : Прогрессивная
Метод сжатия : С потерями
Бит/(Пиксели*Кадры) : 0.134
Размер потока : 640 Мбайт (86%)
Библиотека кодирования : XviD 73

Аудио
Идентификатор : 1
Формат : MPEG Audio
Версия формата : Version 1
Профиль формата : Layer 3
Идентификатор кодека : 55
Идентификатор кодека/Подсказка : MP3
Продолжительность : 1 ч. 47 м.
Вид битрейта : Постоянный
Битрейт : 128 Кбит/сек
Каналы : 2 канала
Частота : 48,0 КГц
Метод сжатия : С потерями
Размер потока : 98,5 Мбайт (13%)
Выравнивание : Соединение по промежуткам
Продолжительность промежутка : 40 мс. (1,00 видеокадр)
Время предзагрузки промежутка : 504 мс.
Библиотека кодирования : LAME3.99r
Настройки программы : -m s -V 4 -q 2 -lowpass 17 -b 128



Скачать Пржевальский через торрент http://s019.radikal.ru/i615/1511/87/bd7fbac4d618.png Скачать, смотреть онлайн Пржевальский бесплантно в хорошем качестве Описание:Фильм посвящен знаменитому русскому путешественнику Николаю Михайловичу Пржевальскому, руководившему экспедицией в Уссурийский ... 5 10 1
Торрент: Зарегистрирован [2015-11-25 08:25] · скачан: 28 раз
Статус: √ проверено
Размер: 746 MB
Как cкачать? Как скачать Пржевальский через торрент | UTorrent

% Раздел Тема Автор DL S | L
Кино СССР [ 1.46 GB ] Пржевальский | | DVDRip-AVC от AVP Studio AVP Studio Скачать
1 | 0
Кино СССР [ 1.46 GB ] Пржевальский | | DVDRip от AVP Studio AVP Studio Скачать
1 | 0

28-11-2019 20:33  

Отключить вcю реклaмy на сайте

    Дорогой пользователь! Огромная просьба, поблагодарите релизера, оцените раздачу и оставьте свои комментарий, если Вы скачали Пржевальский через торрент бесплатно!!
    Комментировать посты могут только пользователи прошедшие не сложную регистрацию
    Показать сообщения:    


    Пржевальский через торрент
    Скачать бесплатно Пржевальский
    Пржевальский скачать торрент
    Пржевальский смотреть онлайн
    Cкачать фильм Пржевальский бесплатно
    Пржевальский скачать торрент в хорошем качестве
    Пржевальский смотреть онлайн бесплатно в хорошем качестве
    Вы не можете начинать темы
    Вы не можете отвечать на сообщения
    Вы не можете редактировать свои сообщения
    Вы не можете удалять свои сообщения
    Вы не можете голосовать в опросах
    Вы не можете прикреплять файлы к сообщениям
    Вы можете скачивать файлы