Доктор Стрэндж

Лицензия

Добыча

MVO

Дом дракона

1 сезон

Тор

Лицензия

Мэверик

Лицензия

Там, где раки поют

MVO

Властелин колец

1 сезон

Ultimate

pack

Рекомендуем

30

Repack

ВАЖНО

ВАЖНО

Ghostwire

RePack

jed

RePack

nioh2

RePack

RDR2

RePack

NEED FOR SPEED™ PAYBACK

RePack

скачать торрент

Кинопоиск HD

Острые козырьки 6 сезон

6 сезон

FAR CRY 6

RePack

скачать торрент

Лицензия

скачать торрент

MVO

1

1 сезон

скачать торрент

1 сезон

скачать торрент

Лицензия

  

Белинский (Григорий Козинцев) [1951, СССР, биография, DVDRip от AVP Studio]

Белинский через торрент piratbit.org

Размер: 745 MB | Добавлен: 6 лет 10 мес. назад | Торрент скачан:13 раз
Смотреть онлайн | Скачать   

26-11-2015 09:03 Белинский Скачать торрент  

Белинский
Страна: СССР
Производство: Ленфильм

Жанр: биография
Год выпуска: 1951
Продолжительность: 01:34:52

Перевод: Не требуется
Cубтитры: нет
Оригинальная аудиодорожка: русский

Режиссер: Григорий Козинцев

В ролях:
Сергей Курилов, Александр Борисов, Владимир Честноков, Георгий Вицин, Николай Афанасьев, Юрий Толубеев, Игорь Литовкин, Нина Мамаева, Юрий Любимов, Владимир Белокуров, Константин Скоробогатов, Михаил Названов, Борис Дмоховский...

Описание:
Историко-биографический фильм о жизни и творчестве русского литературного критика, публициста, философа-материалиста, революционного демократа Виссариона Григорьевича Белинского (1811-1848).

Источник: DVD5 R5
Качество видео: DVDRip
Формат видео: AVI

Видео: 576x432 (4:3), 25 fps, XviD ~ 961 kbps avg, 0.154 bit/pixel
Аудио: 48 kHz, MP3 2.0, 128 kbps

Раздача от:
Общее
Полное имя : Belinskiy.1951.DVDRip-745_[New-team]_by_AVP_Studio.avi
Формат : AVI
Формат/Информация : Audio Video Interleave
Размер файла : 745 Мбайт
Продолжительность : 1 ч. 34 м.
Общий поток : 1098 Кбит/сек
Программа кодирования : VirtualDubMod 1.5.10.3 | www.virtualdub-fr.org || (build 2550/release)
Библиотека кодирования : VirtualDubMod build 2550/release

Видео
Идентификатор : 0
Формат : MPEG-4 Visual
Профиль формата : Advanced Simple@L5
Параметр BVOP формата : 1
Параметр QPel формата : Нет
Параметр GMC формата : Без точки перехода
Параметр матрицы формата : Выборочная
Идентификатор кодека : XVID
Идентификатор кодека/Подсказка : XviD
Продолжительность : 1 ч. 34 м.
Битрейт : 961 Кбит/сек
Ширина : 576 пикселей
Высота : 432 пикселя
Соотношение сторон : 4:3
Частота кадров : 25,000 кадров/сек
Цветовое пространство : YUV
Субдискретизация насыщенности : 4:2:0
Битовая глубина : 8 бит
Тип развёртки : Прогрессивная
Метод сжатия : С потерями
Бит/(Пиксели*Кадры) : 0.154
Размер потока : 652 Мбайт (87%)
Библиотека кодирования : XviD 73

Аудио
Идентификатор : 1
Формат : MPEG Audio
Версия формата : Version 1
Профиль формата : Layer 3
Идентификатор кодека : 55
Идентификатор кодека/Подсказка : MP3
Продолжительность : 1 ч. 34 м.
Вид битрейта : Постоянный
Битрейт : 128 Кбит/сек
Каналы : 2 канала
Частота : 48,0 КГц
Метод сжатия : С потерями
Размер потока : 86,8 Мбайт (12%)
Выравнивание : Соединение по промежуткам
Продолжительность промежутка : 40 мс. (1,00 видеокадр)
Время предзагрузки промежутка : 504 мс.
Библиотека кодирования : LAME3.99r
Настройки программы : -m s -V 4 -q 2 -lowpass 17 -b 128



Скачать Белинский через торрент http://i008.radikal.ru/1511/7c/fd01f5727f35.png Скачать, смотреть онлайн Белинский бесплантно в хорошем качестве Описание:Историко-биографический фильм о жизни и творчестве русского литературного критика, публициста, философа-материалиста, ... 5 10 1
Торрент: Зарегистрирован [2015-11-26 09:03] · скачан: 13 раз
Статус: √ проверено
Размер: 745 MB
Как cкачать? Как скачать Белинский через торрент | UTorrent

% Раздел Тема Автор DL S | L
Кино СССР [ 1.46 GB ] Белинский | | DVDRip-AVC от AVP Studio AVP Studio Скачать
1 | 0
Кино СССР [ 1.46 GB ] Белинский | | DVDRip от AVP Studio AVP Studio Скачать
1 | 0

28-11-2019 20:33  


Отключить вcю реклaмy на сайте, в т.ч. и в плеере онлайн просмотра!

    Дорогой пользователь! Огромная просьба, поблагодарите релизера, оцените раздачу и оставьте свои комментарий, если Вы скачали Белинский через торрент бесплатно!!
    Комментировать посты могут только пользователи прошедшие не сложную регистрацию
    Показать сообщения:    


    Белинский через торрент
    Скачать бесплатно Белинский
    Белинский скачать торрент
    Белинский смотреть онлайн
    Cкачать фильм Белинский бесплатно
    Белинский скачать торрент в хорошем качестве
    Белинский смотреть онлайн бесплатно в хорошем качестве
    Вы не можете начинать темы
    Вы не можете отвечать на сообщения
    Вы не можете редактировать свои сообщения
    Вы не можете удалять свои сообщения
    Вы не можете голосовать в опросах
    Вы не можете прикреплять файлы к сообщениям
    Вы можете скачивать файлы